(Classical, live) Арриага – Симфония, две увертюры, «Эрминия» / Arriaga – Symphony, overtures, cantata «Herminie» (Ainhoa Arteta, Orquestra de Cadaques, Sir Neville Marriner) - 2007, FLAC (image+.cue) lossless


 

[Цитировать]

Арриага – Симфония, две увертюры, «Эрминия» / Arriaga – Symphony, overtures, cantata «Herminie» (Ainhoa Arteta, Orquestra de Cadaqués, Sir Neville Marriner)
Жанр: Classical, live
Страна-производитель диска: Испания?
Год издания диска: 2007
Издатель (лейбл): Tritó, S.L.
Номер по каталогу: TD0034
Дата записи: август 2006 г., Сан-Себастьян (Доностия), концертная запись.
Аудиокодек: FLAC
Тип рипа: image+.cue
Битрейт аудио: lossless
Продолжительность: 01:07:27
Источник: odeonmusic
Наличие сканов в содержимом раздачи: да
Треклист:
Хуан Крисостомо Хакобо Антонио де Арриага-и-Бальсола (1806 — 1826).
Увертюра F-dur (т. наз. «Нонет»), op. 1 (1818).
01. Adagio. — Allegro. — [Кода] [06:50].
«Эрминия», кантата для сопрано и оркестра (ок. 1825).
02. Allegro. — Речитатив. «Le jour frappe mes yeux...». — [02:08].
03. — [Ария.] «Long temps, hélas! gémir fut mon partage...». Andante. — Più moto. — [04:28].
04. — Allegro. — Речитатив. «Mais sur cette arène guerrière...». — [01:44].
05. — [Ария.] «Il n'est plus... Diex cruels!». Allegro agitato. — [02:57].
06. — Речитатив. «Se peut-il? Sur son front...». Lento. — Allegro. — [01:35].
07. — [Ария.] «Tancrède me devra le jour...». Allegretto. — Più moto [07:08].
Увертюра D-dur, op. 20 (1821).
08. Adagio. — Allegro assai [10:46].
Симфония d-moll (1824?; полная версия).
09. I. Adagio. — Allegro vivace. — [Кода.] Presto [10:28].
10. II. Andante [08:43].
11. III. Minuetto. Allegro. — Trio. — Minuetto da capo [03:35].
12. IV. Allegro con moto [07:05].
Исполнители:
Ainhoa Arteta (сопрано).
Orquestra de Cadaqués.
Дирижер Sir Neville Marriner.

Лог создания рипа

Exact Audio Copy V1.0 beta 3 from 29. August 2011
EAC extraction logfile from 6. August 2012, 13:18
Sir Neville Marriner / Arriaga - Overtures, Cantata 'Herminie', Sinfonia - Marriner
Used drive : HL-DT-STDVDRAM GSA-H10A Adapter: 0 ID: 0
Read mode : Secure
Utilize accurate stream : Yes
Defeat audio cache : Yes
Make use of C2 pointers : No
Read offset correction : 667
Overread into Lead-In and Lead-Out : No
Fill up missing offset samples with silence : Yes
Delete leading and trailing silent blocks : No
Null samples used in CRC calculations : Yes
Used interface : Native Win32 interface for Win NT & 2000
Used output format : User Defined Encoder
Selected bitrate : 1024 kBit/s
Quality : High
Add ID3 tag : No
Command line compressor : C:\Program Files\Exact Audio Copy\Flac\flac.exe
Additional command line options : -8 -V -T "TITLE=%title%" -T "ARTIST=%artist%" -T "ALBUMARTIST=%albumartist%" -T "ALBUM=%albumtitle%" -T "DATE=%year%" -T "TRACKNUMBER=%tracknr%" -T "TRACKTOTAL=%numtracks%" -T "GENRE=%genre%" -T "COMMENT=%comment%" -T "PERFORMER=%albuminterpret%" -T "COMPOSER=%composer%" %source% -o %dest%
TOC of the extracted CD
Track | Start | Length | Start sector | End sector
---------------------------------------------------------
1 | 0:00.00 | 6:52.18 | 0 | 30917
2 | 6:52.18 | 2:10.13 | 30918 | 40680
3 | 9:02.31 | 4:28.07 | 40681 | 60787
4 | 13:30.38 | 1:46.67 | 60788 | 68804
5 | 15:17.30 | 2:59.00 | 68805 | 82229
6 | 18:16.30 | 1:37.34 | 82230 | 89538
7 | 19:53.64 | 7:10.56 | 89539 | 121844
8 | 27:04.45 | 10:48.07 | 121845 | 170451
9 | 37:52.52 | 10:30.65 | 170452 | 217766
10 | 48:23.42 | 8:45.72 | 217767 | 257213
11 | 57:09.39 | 3:37.57 | 257214 | 273545
12 | 60:47.21 | 7:03.65 | 273546 | 305335
Range status and errors
Selected range
Filename F:\Ripped general\[9694] Arriaga - Overtures, Cantata 'Herminie', Sinfonia - Marriner\Arriaga - Overtures, Cantata 'Herminie', Sinfonia - Marriner.wav
Peak level 92.2 %
Extraction speed 7.6 X
Range quality 100.0 %
Test CRC 6E6008F7
Copy CRC 6E6008F7
Copy OK
No errors occurred
AccurateRip summary
Track 1 accurately ripped (confidence 1) [8F0108C1] (AR v1)
Track 2 accurately ripped (confidence 1) [562DB57F] (AR v1)
Track 3 accurately ripped (confidence 1) [1A8626E1] (AR v1)
Track 4 accurately ripped (confidence 1) [7F8B336F] (AR v1)
Track 5 accurately ripped (confidence 1) [F19B0104] (AR v1)
Track 6 accurately ripped (confidence 1) [273BE3A8] (AR v1)
Track 7 accurately ripped (confidence 1) [47DAFEB8] (AR v1)
Track 8 accurately ripped (confidence 1) [158F3D03] (AR v1)
Track 9 accurately ripped (confidence 1) [3A8A9DE4] (AR v1)
Track 10 accurately ripped (confidence 1) [B14A63AE] (AR v1)
Track 11 accurately ripped (confidence 1) [D08BA456] (AR v1)
Track 12 accurately ripped (confidence 1) [2C47A3F9] (AR v1)
All tracks accurately ripped
End of status report

Содержание индексной карты (.CUE)

REM GENRE Classical
REM DISCID A70FE70C
REM COMMENT "ExactAudioCopy v1.0b3"
PERFORMER "Sir Neville Marriner"
TITLE "Arriaga – Overtures, Cantata «Herminie», Sinfonia – Marriner"
FILE "Arriaga – Overtures, Cantata «Herminie», Sinfonia – Marriner.flac" WAVE
TRACK 01 AUDIO
TITLE "Overture in F major 'Nonetto', Op. 1"
PERFORMER "Sir Neville Marriner"
INDEX 01 00:00:00
TRACK 02 AUDIO
TITLE "'Herminie', cantata for soprano & orquesta - Recitativo 'Le jour frappe mes yeux'"
PERFORMER "Sir Neville Marriner"
INDEX 00 06:50:18
INDEX 01 06:52:18
TRACK 03 AUDIO
TITLE "'Herminie', cantata for soprano & orquesta - Aria 'Long temps, helas!'"
PERFORMER "Sir Neville Marriner"
INDEX 00 09:00:31
INDEX 01 09:02:31
TRACK 04 AUDIO
TITLE "'Herminie', cantata for soprano & orquesta - Recitativo 'Mais sur cette arene guerriere'"
PERFORMER "Sir Neville Marriner"
INDEX 01 13:30:38
TRACK 05 AUDIO
TITLE "'Herminie', cantata for soprano & orquesta - Aria 'Il n'est plus'"
PERFORMER "Sir Neville Marriner"
INDEX 00 15:15:30
INDEX 01 15:17:30
TRACK 06 AUDIO
TITLE "'Herminie', cantata for soprano & orquesta - Recitativo 'Se peut-il'"
PERFORMER "Sir Neville Marriner"
INDEX 00 18:14:30
INDEX 01 18:16:30
TRACK 07 AUDIO
TITLE "'Herminie', cantata for soprano & orquesta - Aria 'Tancrede me devra le jour'"
PERFORMER "Sir Neville Marriner"
INDEX 00 19:51:64
INDEX 01 19:53:64
TRACK 08 AUDIO
TITLE "Overture in D major, Op. 20"
PERFORMER "Sir Neville Marriner"
INDEX 00 27:02:45
INDEX 01 27:04:45
TRACK 09 AUDIO
TITLE "Symphony in D minor - I. Adagio - Allegro vivace"
PERFORMER "Sir Neville Marriner"
INDEX 00 37:50:52
INDEX 01 37:52:52
TRACK 10 AUDIO
TITLE "Symphony in D minor - II. Andante"
PERFORMER "Sir Neville Marriner"
INDEX 00 48:21:42
INDEX 01 48:23:42
TRACK 11 AUDIO
TITLE "Symphony in D minor - III. Minuetto. Allegro"
PERFORMER "Sir Neville Marriner"
INDEX 00 57:07:39
INDEX 01 57:09:39
TRACK 12 AUDIO
TITLE "Symphony in D minor - IV. Allegro con moto"
PERFORMER "Sir Neville Marriner"
INDEX 00 60:45:21
INDEX 01 60:47:21

Вариант индексной карты (.CUE) с исправленными зазорами (в т.ч. с вырезанными аплодисментами)

REM GENRE Classical
REM DISCID A70FE70C
REM COMMENT "ExactAudioCopy v1.0b3"
PERFORMER "Sir Neville Marriner"
TITLE "Arriaga – Overtures, Cantata «Herminie», Sinfonia – Marriner"
FILE "Arriaga – Overtures, Cantata «Herminie», Sinfonia – Marriner.flac" WAVE
TRACK 01 AUDIO
TITLE "Overture in F major 'Nonetto', Op. 1"
PERFORMER "Sir Neville Marriner"
INDEX 00 00:00:00
INDEX 01 00:02:03
TRACK 02 AUDIO
TITLE "'Herminie', cantata for soprano & orquesta - Recitativo 'Le jour frappe mes yeux'"
PERFORMER "Sir Neville Marriner"
INDEX 00 06:48:05
INDEX 01 06:52:18
TRACK 03 AUDIO
TITLE "'Herminie', cantata for soprano & orquesta - Aria 'Long temps, helas!'"
PERFORMER "Sir Neville Marriner"
INDEX 00 09:00:31
INDEX 01 09:02:31
TRACK 04 AUDIO
TITLE "'Herminie', cantata for soprano & orquesta - Recitativo 'Mais sur cette arene guerriere'"
PERFORMER "Sir Neville Marriner"
INDEX 01 13:30:49
TRACK 05 AUDIO
TITLE "'Herminie', cantata for soprano & orquesta - Aria 'Il n'est plus'"
PERFORMER "Sir Neville Marriner"
INDEX 00 15:13:31
INDEX 01 15:17:30
TRACK 06 AUDIO
TITLE "'Herminie', cantata for soprano & orquesta - Recitativo 'Se peut-il'"
PERFORMER "Sir Neville Marriner"
INDEX 00 18:14:30
INDEX 01 18:16:30
TRACK 07 AUDIO
TITLE "'Herminie', cantata for soprano & orquesta - Aria 'Tancrede me devra le jour'"
PERFORMER "Sir Neville Marriner"
INDEX 00 19:51:64
INDEX 01 19:53:64
TRACK 08 AUDIO
TITLE "Overture in D major, Op. 20"
PERFORMER "Sir Neville Marriner"
INDEX 00 27:00:06
INDEX 01 27:04:45
TRACK 09 AUDIO
TITLE "Symphony in D minor - I. Adagio - Allegro vivace"
PERFORMER "Sir Neville Marriner"
INDEX 00 37:49:24
INDEX 01 37:52:52
TRACK 10 AUDIO
TITLE "Symphony in D minor - II. Andante"
PERFORMER "Sir Neville Marriner"
INDEX 00 48:10:32
INDEX 01 48:23:42
TRACK 11 AUDIO
TITLE "Symphony in D minor - III. Minuetto. Allegro"
PERFORMER "Sir Neville Marriner"
INDEX 00 56:58:19
INDEX 01 57:09:39
TRACK 12 AUDIO
TITLE "Symphony in D minor - IV. Allegro con moto"
PERFORMER "Sir Neville Marriner"
INDEX 00 60:40:72
INDEX 01 60:47:21
INDEX 02 67:20:14
Хуан Крисостомо де Арриага. Симфония (версия с купюрами), увертюра к «Счастливым невольникам» (Orquestra de Cadaqués, Sir Neville Marriner).



Показать сообщения:    

Текущее время: 24-Янв 00:01

Часовой пояс: UTC + 3


Вы не можете начинать темы
Вы не можете отвечать на сообщения
Вы не можете редактировать свои сообщения
Вы не можете удалять свои сообщения
Вы не можете голосовать в опросах
Вы не можете прикреплять файлы к сообщениям
Вы не можете скачивать файлы