(Classical) Арриага – Симфония, увертюра к «Счастливым невольникам» / Arriaga – Symphony & Overture to «Los esclavos felices» (Orquestra de Cadaques, Sir Neville Marriner) - 1996, FLAC (image+.cue) lossless


 

[Цитировать]

Арриага – Симфония, увертюра к «Счастливым невольникам» / Arriaga – Symphony & Overture to «Los esclavos felices» (Orquestra de Cadaqués, Sir Neville Marriner)
Жанр: Classical
Страна-производитель диска: Испания?
Год издания диска: 1996
Издатель (лейбл): Tritó, S.L.
Номер по каталогу: REE CD-1076 / TD0001
Дата записи: 22 января 1996 г., Сантандер.
Аудиокодек: FLAC
Тип рипа: image+.cue
Битрейт аудио: lossless
Продолжительность: 00:31:13
Источник: odeonmusic
Наличие сканов в содержимом раздачи: да
Треклист:
Хуан Крисостомо Хакобо Антонио де Арриага-и-Бальсола (1806 — 1826).
«Пасторальная» увертюра D-dur к опере «Счастливые невольники» (Los esclavos felices, 1819 — 1820, утрачена; 2-я ред.? увертюры между 1823 и 1825).
01. Andantino pastorale. — Allegro assai. — [Кода.] Più mosso. — Presto [07:15].
Симфония d-moll (1824?; версия с купюрами).
02. I. Adagio. — Allegro vivace. — [Кода.] Presto [07:54].
03. II. Andante [07:36].
04. III. Minuetto. Allegro. — Trio. — Minuetto da capo [03:33].
05. IV. Allegro con moto [05:00].
Исполнители:
Orquestra de Cadaqués.
Дирижер Sir Neville Marriner.

Лог создания рипа

Exact Audio Copy V1.0 beta 3 from 29. August 2011
EAC extraction logfile from 7. August 2013, 11:50
Sir Neville Marriner / Arriaga - Overture “Los esclavos felices”, Symphony in D minor - Neville Marriner
Used drive : TSSTcorpCDDVDW SH-222BB Adapter: 2 ID: 1
Read mode : Secure
Utilize accurate stream : Yes
Defeat audio cache : Yes
Make use of C2 pointers : No
Read offset correction : 6
Overread into Lead-In and Lead-Out : No
Fill up missing offset samples with silence : Yes
Delete leading and trailing silent blocks : No
Null samples used in CRC calculations : Yes
Used interface : Native Win32 interface for Win NT & 2000
Used output format : User Defined Encoder
Selected bitrate : 1024 kBit/s
Quality : High
Add ID3 tag : No
Command line compressor : C:\Program Files\Exact Audio Copy\Flac\flac.exe
Additional command line options : -8 -V -T "TITLE=%title%" -T "ARTIST=%artist%" -T "ALBUMARTIST=%albumartist%" -T "ALBUM=%albumtitle%" -T "DATE=%year%" -T "TRACKNUMBER=%tracknr%" -T "TRACKTOTAL=%numtracks%" -T "GENRE=%genre%" -T "COMMENT=%comment%" -T "PERFORMER=%albuminterpret%" -T "COMPOSER=%composer%" %source% -o %dest%
TOC of the extracted CD
Track | Start | Length | Start sector | End sector
---------------------------------------------------------
1 | 0:00.00 | 7:15.13 | 0 | 32637
2 | 7:15.13 | 7:53.63 | 32638 | 68175
3 | 15:09.01 | 7:35.50 | 68176 | 102350
4 | 22:44.51 | 3:33.18 | 102351 | 118343
5 | 26:17.69 | 4:54.56 | 118344 | 140449
Range status and errors
Selected range
Filename G:\Ripped general\[8693] Arriaga – Overture “Los esclavos felices”, Symphony in D minor – Neville Marriner\Arriaga - Overture “Los esclavos felices”, Symphony in D minor - Neville Marriner.wav
Peak level 94.7 %
Extraction speed 2.5 X
Range quality 100.0 %
Test CRC 6A0A1A1D
Copy CRC 6A0A1A1D
Copy OK
No errors occurred
AccurateRip summary
Track 1 not present in database
Track 2 not present in database
Track 3 not present in database
Track 4 not present in database
Track 5 not present in database
None of the tracks are present in the AccurateRip database
End of status report

Содержание индексной карты (.CUE)

REM GENRE Classical
REM DISCID 41075005
REM COMMENT "ExactAudioCopy v1.0b3"
PERFORMER "Sir Neville Marriner"
TITLE "Arriaga – Overture «Los esclavos felices» & Symphony in D minor – Neville Marriner"
FILE "Arriaga – Overture «Los esclavos felices» & Symphony in D minor – Neville Marriner.flac" WAVE
TRACK 01 AUDIO
TITLE "Overture to 'Los esclavos felices'"
PERFORMER "Sir Neville Marriner"
INDEX 01 00:00:00
TRACK 02 AUDIO
TITLE "Symphony in D minor - I. Adagio - Allegro vivace"
PERFORMER "Sir Neville Marriner"
INDEX 01 07:15:13
TRACK 03 AUDIO
TITLE "Symphony in D minor - II. Andante"
PERFORMER "Sir Neville Marriner"
INDEX 01 15:09:01
TRACK 04 AUDIO
TITLE "Symphony in D minor - III. Minuetto. Allegro"
PERFORMER "Sir Neville Marriner"
INDEX 01 22:44:51
TRACK 05 AUDIO
TITLE "Symphony in D minor - IV. Allegro con moto"
PERFORMER "Sir Neville Marriner"
INDEX 01 26:17:69
-Данный диск является первым, выпущенным Tritó.
Эта фирма записывает редкую и малоизвестную испанскую музыку. Например:
Хуан Крисостомо де Арриага. Симфония, увертюры, кантата «Эрминия» (Ainhoa Arteta, Sir Neville Marriner).
Томас Бретон. Хесус де Монастерио. Скрипичные концерты (Ara Malikian, Alejandro Posada Gómez).
Энрике Гранадос. Фортепианное трио. Фортепианный квинтет (две редакции). Исаак Альбенис. Азулежу (Jean-Bernard Pommier, Solistes de l'Orquestra de Cadaqués).
Исаак Альбенис. Сочинения для оркестра (Jaime Martín).-Хуан Крисостомо де Арриага.
Симфония (версия с купюрами), увертюра к «Счастливым невольникам» (Sir Charles Mackerras).
Симфония (полная версия), две увертюры (Jordi Savall). Первая в мире запись полной версии Симфонии.
Симфония (полная версия) и три увертюры (Paul Dombrecht).
Симфония (полная версия), увертюры, кантата «Эрминия» (Ainhoa Arteta, Sir Neville Marriner).
Струнные квартеты (Guarneri Quartet).



Показать сообщения:    

Текущее время: 03-Дек 16:45

Часовой пояс: UTC + 3


Вы не можете начинать темы
Вы не можете отвечать на сообщения
Вы не можете редактировать свои сообщения
Вы не можете удалять свои сообщения
Вы не можете голосовать в опросах
Вы не можете прикреплять файлы к сообщениям
Вы не можете скачивать файлы