(Classical) Monteverdi - Complete Chamber Duets & Select Madrigals (Cecchi Fedi, Invernizzi, Banditelli, Del Monaco, Zambon - Il Complesso Barocco, Curtis) - 2004, APE (image+.cue) lossless


 

[Цитировать]

Claudio Monteverdi (1567-1643) - Complete Chamber Duets & Select Madrigals
Жанр: Classical
Страна-производитель диска: Eu
Год издания диска: 2004
Издатель (лейбл): Virgin Veritas
Номер по каталогу: 7243 5 62416 2 6
Дата записи: 1996-1997
Аудиокодек: APE
Тип рипа: image+.cue
Битрейт аудио: lossless
Продолжительность: 67'51+74'00
Источник: собственный рип
Наличие сканов в содержимом раздачи: да
Треклист:

CD1

1. Zefiro Torna
2. Ion Son Pur Vezzosetta
3. Vorrei Baciarti
4. O Sia Tranquillo Il Mare
5. Chiome D'oro
6. Non Vedro Mai Le Stelle
7. Mentre Vaga Angioletta
8. Non E Di Gentil Core
9. Tornate, O Cari Baci
10. Ohime, Dov'e Il Mio Ben
11. Bel Pastor (Aminta E Clori)
12. Se L Vostro Cor, Madonna
13. O Viva Fiamma
14. Ecco Vicine, O Bella Tigre, L'ore
15. O Come Sei Gentile
16. Soave Libertate

CD2

1. Voi Ch'ascoltate
2. O Come Vaghi
3. O Mio Bene
4. Ah, Che Non Si Conviene
5. Su, Su, Su, Pastorelli Vezzosi
6. Gira Il Nemico Insidioso Amore
7. Perche Te'n Fuggi, O Fillide?
8. Lamento Della Ninfa
9. Se Vittorie Si Belle
10. Interrotte Speranze
11. Armato Il Cor
12. Chi Vol Che M'innamori
13. Dice La Mia Bellissima Licori
14. Ardo E Scoprir
15. Spuntava Il Di
16. Perche Fuggi
17. Or, Che 'L Ciel
Исполнители:
Claudio Monteverdi (1567-1643) - Complete Chamber Duets & Select Madrigals
Elena Cecchi Fedi, soprano
Roberta Invernizzi, soprano
Silvia Piccollo, soprano
Gloria Banditelli, mezzo-soprano
Daniela Del Monaco, contralto
Giuseppe Zambon, coumtertenor
Luca Dordolo, tenor
Gian Paolo Fagotto, tenor
Roberto Abbondanza, baritone
Furio Zanasi, baritone
Antonio Abete, bass
Il Complesso Barocco
Alan Curtis

Лог создания рипа

CD1

Exact Audio Copy V1.0 beta 3 from 29. August 2011
EAC extraction logfile from 28. November 2014, 12:31
Monteverdi / Complete Chamber Duets, Curtis CD1
Used drive : TS8XDVDSTRANSCEND Adapter: 1 ID: 1
Read mode : Secure
Utilize accurate stream : Yes
Defeat audio cache : Yes
Make use of C2 pointers : No
Read offset correction : 6
Overread into Lead-In and Lead-Out : No
Fill up missing offset samples with silence : Yes
Delete leading and trailing silent blocks : No
Null samples used in CRC calculations : Yes
Used interface : Native Win32 interface for Win NT & 2000
Used output format : Monkey's Audio Lossless Encoder
Selected bitrate : High Lossless Compression
Quality : High
Add ID3 tag : Yes
Command line compressor : C:\Program Files (x86)\Exact Audio Copy\MAC\MAC.exe
TOC of the extracted CD
Track | Start | Length | Start sector | End sector
---------------------------------------------------------
1 | 0:00.00 | 6:13.47 | 0 | 28021
2 | 6:13.47 | 3:15.23 | 28022 | 42669
3 | 9:28.70 | 3:28.72 | 42670 | 58341
4 | 12:57.67 | 4:31.18 | 58342 | 78684
5 | 17:29.10 | 3:27.45 | 78685 | 94254
6 | 20:56.55 | 3:30.32 | 94255 | 110036
7 | 24:27.12 | 8:57.08 | 110037 | 150319
8 | 33:24.20 | 3:30.62 | 150320 | 166131
9 | 36:55.07 | 2:49.15 | 166132 | 178821
10 | 39:44.22 | 5:13.25 | 178822 | 202321
11 | 44:57.47 | 4:26.58 | 202322 | 222329
12 | 49:24.30 | 3:38.72 | 222330 | 238751
13 | 53:03.27 | 3:14.63 | 238752 | 253364
14 | 56:18.15 | 3:24.62 | 253365 | 268726
15 | 59:43.02 | 4:31.65 | 268727 | 289116
16 | 64:14.67 | 3:35.13 | 289117 | 305254
Range status and errors
Selected range
Filename D:\EAC\Monteverdi - Complete Chamber Duets, Curtis CD1.wav
Peak level 99.0 %
Extraction speed 3.3 X
Range quality 100.0 %
Test CRC A0ABD2AC
Copy CRC A0ABD2AC
Copy OK
No errors occurred
AccurateRip summary
Track 1 accurately ripped (confidence 5) [65FDA5BD] (AR v2)
Track 2 accurately ripped (confidence 5) [337DAE75] (AR v2)
Track 3 accurately ripped (confidence 5) [CFA05D35] (AR v2)
Track 4 accurately ripped (confidence 5) [0285A4C9] (AR v2)
Track 5 accurately ripped (confidence 5) [E3018313] (AR v2)
Track 6 accurately ripped (confidence 5) [04520244] (AR v2)
Track 7 accurately ripped (confidence 5) [68932BF0] (AR v2)
Track 8 accurately ripped (confidence 5) [95B3A308] (AR v2)
Track 9 accurately ripped (confidence 5) [4F260C5D] (AR v2)
Track 10 accurately ripped (confidence 5) [0013C294] (AR v2)
Track 11 accurately ripped (confidence 5) [2283AC41] (AR v2)
Track 12 accurately ripped (confidence 5) [3A393DA5] (AR v2)
Track 13 accurately ripped (confidence 5) [CC680FB7] (AR v2)
Track 14 accurately ripped (confidence 5) [BFABEBF4] (AR v2)
Track 15 accurately ripped (confidence 5) [336137AB] (AR v2)
Track 16 accurately ripped (confidence 4) [F8CD772F] (AR v2)
All tracks accurately ripped
End of status report
---- CUETools DB Plugin V2.1.3
[CTDB TOCID: ui70OFN1O_2bVzKAHo08kXSxE58-] found, Submit result: unrecognized or virtual drive
[4a3f24a0] (1/3) No match
[581d22c2] (2/3) Accurately ripped
==== Log checksum 09A4E9B23FF7C8DD913DAAF2F7A9EEDCFD82A27D294586BF38BD31172ADBB7FA ====

CD2

Exact Audio Copy V1.0 beta 3 from 29. August 2011
EAC extraction logfile from 28. November 2014, 12:19
Monteverdi / Complete Chamber Duets, Curtis CD2
Used drive : TSSTcorpCDDVDW SE-208AB Adapter: 1 ID: 0
Read mode : Secure
Utilize accurate stream : Yes
Defeat audio cache : Yes
Make use of C2 pointers : No
Read offset correction : 6
Overread into Lead-In and Lead-Out : No
Fill up missing offset samples with silence : Yes
Delete leading and trailing silent blocks : No
Null samples used in CRC calculations : Yes
Used interface : Native Win32 interface for Win NT & 2000
Used output format : Monkey's Audio Lossless Encoder
Selected bitrate : High Lossless Compression
Quality : High
Add ID3 tag : Yes
Command line compressor : C:\Program Files (x86)\Exact Audio Copy\MAC\MAC.exe
TOC of the extracted CD
Track | Start | Length | Start sector | End sector
---------------------------------------------------------
1 | 0:00.00 | 4:38.55 | 0 | 20904
2 | 4:38.55 | 3:06.12 | 20905 | 34866
3 | 7:44.67 | 3:52.18 | 34867 | 52284
4 | 11:37.10 | 2:53.72 | 52285 | 65331
5 | 14:31.07 | 2:49.43 | 65332 | 78049
6 | 17:20.50 | 5:47.55 | 78050 | 104129
7 | 23:08.30 | 4:49.25 | 104130 | 125829
8 | 27:57.55 | 6:01.62 | 125830 | 152966
9 | 33:59.42 | 2:26.00 | 152967 | 163916
10 | 36:25.42 | 3:11.35 | 163917 | 178276
11 | 39:37.02 | 2:55.18 | 178277 | 191419
12 | 42:32.20 | 7:11.30 | 191420 | 223774
13 | 49:43.50 | 2:24.50 | 223775 | 234624
14 | 52:08.25 | 4:22.37 | 234625 | 254311
15 | 56:30.62 | 6:35.65 | 254312 | 284001
16 | 63:06.52 | 3:13.00 | 284002 | 298476
17 | 66:19.52 | 7:38.33 | 298477 | 332859
Range status and errors
Selected range
Filename D:\EAC\Monteverdi - Complete Chamber Duets, Curtis CD2.wav
Peak level 100.0 %
Extraction speed 5.1 X
Range quality 100.0 %
Test CRC E23A8221
Copy CRC E23A8221
Copy OK
No errors occurred
AccurateRip summary
Track 1 accurately ripped (confidence 5) [E10AC1F1] (AR v2)
Track 2 accurately ripped (confidence 5) [D29DAB6D] (AR v2)
Track 3 accurately ripped (confidence 5) [8B9EA1C0] (AR v2)
Track 4 accurately ripped (confidence 5) [A39C3DCB] (AR v2)
Track 5 accurately ripped (confidence 5) [FC367EED] (AR v2)
Track 6 accurately ripped (confidence 5) [21A5BE9A] (AR v2)
Track 7 accurately ripped (confidence 5) [1C4A822F] (AR v2)
Track 8 accurately ripped (confidence 5) [69EF5A2F] (AR v2)
Track 9 accurately ripped (confidence 5) [83047F93] (AR v2)
Track 10 accurately ripped (confidence 5) [CA9411C0] (AR v2)
Track 11 accurately ripped (confidence 5) [B37AF2AE] (AR v2)
Track 12 accurately ripped (confidence 5) [99F90E5C] (AR v2)
Track 13 accurately ripped (confidence 5) [F17B044E] (AR v2)
Track 14 accurately ripped (confidence 5) [EF7ED2D0] (AR v2)
Track 15 accurately ripped (confidence 5) [950F1053] (AR v2)
Track 16 accurately ripped (confidence 5) [9AE41588] (AR v2)
Track 17 accurately ripped (confidence 5) [CC26BCFB] (AR v2)
All tracks accurately ripped
End of status report
---- CUETools DB Plugin V2.1.3
[CTDB TOCID: JSE.ycNPOirhjhUDxcEauBeE5Jg-] found, Submit result: JSE.ycNPOirhjhUDxcEauBeE5Jg- has been confirmed
[bd9f47cc] (2/2) Accurately ripped
==== Log checksum E0F1E6727028FA6B8C545DFC016E267CD7214EBCAB12EBD10364D2C88F1EAD6E ====

Содержание индексной карты (.CUE)

CD1

REM GENRE Vocal
REM DATE 1998
REM DISCID 020FE610
REM COMMENT "ExactAudioCopy v1.0b3"
CATALOG 0724354529320
PERFORMER "Monteverdi"
TITLE "Complete Chamber Duets, Curtis CD1"
FILE "Monteverdi - Complete Chamber Duets, Curtis CD1.ape" WAVE
TRACK 01 AUDIO
TITLE "Zefiro torna"
PERFORMER "Monteverdi"
ISRC GBAYC9603316
FLAGS DCP
INDEX 01 00:00:00
TRACK 02 AUDIO
TITLE "Io son pur vezzosetta"
PERFORMER "Monteverdi"
ISRC GBAYC9603317
FLAGS DCP
INDEX 01 06:13:47
TRACK 03 AUDIO
TITLE "Vorrei baciarti"
PERFORMER "Monteverdi"
ISRC GBAYC9603319
FLAGS DCP
INDEX 01 09:28:70
TRACK 04 AUDIO
TITLE "O sia tranquillo il mare"
PERFORMER "Monteverdi"
ISRC GBAYC9603320
FLAGS DCP
INDEX 00 12:56:06
INDEX 01 12:57:67
TRACK 05 AUDIO
TITLE "Chiome d'oro"
PERFORMER "Monteverdi"
ISRC GBAYC9603323
FLAGS DCP
INDEX 00 17:27:20
INDEX 01 17:29:10
TRACK 06 AUDIO
TITLE "Non vedrò mai le stelle"
PERFORMER "Monteverdi"
ISRC GBAYC9603324
FLAGS DCP
INDEX 01 20:56:55
TRACK 07 AUDIO
TITLE "Mentre vaga Angioletta"
PERFORMER "Monteverdi"
ISRC GBAYC9603325
FLAGS DCP
INDEX 01 24:27:12
TRACK 08 AUDIO
TITLE "Non è di gentil core"
PERFORMER "Monteverdi"
ISRC GBAYC9603328
FLAGS DCP
INDEX 00 33:20:27
INDEX 01 33:24:20
TRACK 09 AUDIO
TITLE "Tornate, o cari baci"
PERFORMER "Monteverdi"
ISRC GBAYC9603329
FLAGS DCP
INDEX 01 36:55:07
TRACK 10 AUDIO
TITLE "Ohimé, dov'è il mio ben"
PERFORMER "Monteverdi"
ISRC GBAYC9603330
FLAGS DCP
INDEX 00 39:41:07
INDEX 01 39:44:22
TRACK 11 AUDIO
TITLE "Bel pastor (Aminta e Clori)"
PERFORMER "Monteverdi"
ISRC GBAYC9603330
FLAGS DCP
INDEX 01 44:57:47
TRACK 12 AUDIO
TITLE "Se 'l vostro cor, madonna"
PERFORMER "Monteverdi"
ISRC GBAYC9603332
FLAGS DCP
INDEX 00 49:21:53
INDEX 01 49:24:30
TRACK 13 AUDIO
TITLE "O viva fiamma"
PERFORMER "Monteverdi"
ISRC GBAYC9603333
FLAGS DCP
INDEX 01 53:03:27
TRACK 14 AUDIO
TITLE "Ecco vicine, o bella tigre, l'ore"
PERFORMER "Monteverdi"
ISRC GBAYC9603334
FLAGS DCP
INDEX 01 56:18:15
TRACK 15 AUDIO
TITLE "O come sei gentile"
PERFORMER "Monteverdi"
ISRC GBAYC9603335
FLAGS DCP
INDEX 01 59:43:02
TRACK 16 AUDIO
TITLE "Soave libertate"
PERFORMER "Monteverdi"
ISRC GBAYC9603336
FLAGS DCP
INDEX 00 64:12:19
INDEX 01 64:14:67

CD2

REM GENRE Vocal
REM DATE 1998
REM DISCID 0F115611
REM COMMENT "ExactAudioCopy v1.0b3"
PERFORMER "Monteverdi"
TITLE "Complete Chamber Duets, Curtis CD2"
FILE "Monteverdi - Complete Chamber Duets, Curtis CD2.ape" WAVE
TRACK 01 AUDIO
TITLE "Voi ch'ascoltate"
PERFORMER "Monteverdi"
ISRC GBAYC9701932
INDEX 01 00:00:00
TRACK 02 AUDIO
TITLE "O come vaghi"
PERFORMER "Monteverdi"
ISRC GBAYC9701933
INDEX 00 04:38:00
INDEX 01 04:38:55
TRACK 03 AUDIO
TITLE "O mio bene"
PERFORMER "Monteverdi"
ISRC GBAYC9701934
INDEX 00 07:44:55
INDEX 01 07:44:67
TRACK 04 AUDIO
TITLE "Ah, che non si conviene"
PERFORMER "Monteverdi"
ISRC GBAYC9701935
INDEX 00 11:36:67
INDEX 01 11:37:10
TRACK 05 AUDIO
TITLE "Su, su, su pastorelli vezzosi"
PERFORMER "Monteverdi"
ISRC GBAYC9701936
INDEX 00 14:30:10
INDEX 01 14:31:07
TRACK 06 AUDIO
TITLE "Gira il nemico insidioso Amore"
PERFORMER "Monteverdi"
ISRC GBAYC9701937
INDEX 00 17:20:07
INDEX 01 17:20:50
TRACK 07 AUDIO
TITLE "Perché te'n fuggi, o Fillide?"
PERFORMER "Monteverdi"
ISRC GBAYC9101938
INDEX 00 23:07:50
INDEX 01 23:08:30
TRACK 08 AUDIO
TITLE "Lamento dell ninfa"
PERFORMER "Monteverdi"
ISRC GBAYC9701939
INDEX 00 27:57:30
INDEX 01 27:57:55
TRACK 09 AUDIO
TITLE "Se vittorie sì belle"
PERFORMER "Monteverdi"
ISRC GBAYC9701940
INDEX 00 33:58:55
INDEX 01 33:59:42
TRACK 10 AUDIO
TITLE "Interrotte speranze"
PERFORMER "Monteverdi"
ISRC GBAYC9701941
INDEX 01 36:25:42
TRACK 11 AUDIO
TITLE "Armato il cor"
PERFORMER "Monteverdi"
ISRC GBAYC9701942
INDEX 00 39:36:42
INDEX 01 39:37:02
TRACK 12 AUDIO
TITLE "Chi vol che m'innamori"
PERFORMER "Monteverdi"
ISRC GBAYC9701943
INDEX 00 42:32:02
INDEX 01 42:32:20
TRACK 13 AUDIO
TITLE "Dice la mia bellissima Licori"
PERFORMER "Monteverdi"
ISRC GBAYC9701944
INDEX 00 49:43:20
INDEX 01 49:43:50
TRACK 14 AUDIO
TITLE "Ardo e scoprir"
PERFORMER "Monteverdi"
ISRC GBAYC9701945
INDEX 00 52:05:50
INDEX 01 52:08:25
TRACK 15 AUDIO
TITLE "Spuntava il dì"
PERFORMER "Monteverdi"
ISRC GBAYC9701946
INDEX 00 56:30:25
INDEX 01 56:30:62
TRACK 16 AUDIO
TITLE "Perché fuggi"
PERFORMER "Monteverdi"
ISRC GBAYC9701947
INDEX 00 63:05:62
INDEX 01 63:06:52
TRACK 17 AUDIO
TITLE "Or, ch 'l ciel"
PERFORMER "Monteverdi"
ISRC GBAYC9701948
INDEX 01 66:19:52



Показать сообщения:    

Текущее время: 07-Дек 00:55

Часовой пояс: UTC + 3


Вы не можете начинать темы
Вы не можете отвечать на сообщения
Вы не можете редактировать свои сообщения
Вы не можете удалять свои сообщения
Вы не можете голосовать в опросах
Вы не можете прикреплять файлы к сообщениям
Вы не можете скачивать файлы