(Classical, 18th Century) Gottfried August Homilius - Weihnachtsoratorium; Christian August Jacobi – Weihnachtskantate (Christiane Kohl, Marcus Ullmann, Sachsisches Vocalenemsble, Virtuosi Saxoniae, Ludwig Guttler) - 2008, FLAC (image+.cue) lossless


Статистика раздачи [Обновить пиров]
Размер:  317 MB   |    Зарегистрирован:  8 месяцев 15 дней   |    Скачан:  1 раз

Полного источника не было: 3 месяца 5 дней

Личеров:  3  [  0 KB/s  ]   Подробная статистика пиров
 
   
 
 
 

[Цитировать]

Gottfried August Homilius - Weihnachtsoratorium; Christian August Jacobi – Weihnachtskantate
(Christiane Kohl, Marcus Ullmann, Sachsisches Vocalenemsble, Virtuosi Saxoniae, Ludwig Guttler)

Жанр: Classical, 18th Century
Страна-производитель диска: Germany
Год издания диска: 2008
Издатель (лейбл): Carus, DDD
Номер по каталогу: 9181631
Дата записи: 2007
Аудиокодек: FLAC
Тип рипа: image+.cue
Битрейт аудио: lossless
Продолжительность: 58:22
Источник: скачано с
сайт-источник/ник/другое: WEB
Наличие сканов в содержимом раздачи: да
Треклист:
Готфрид Август Хомилиус (1714-1785)
1-10. Weihnachtsoratorium "Die Freude der Hirten über die Geburt Jesu"
I. Gott, dich rühmen unsre Lieder 7:03
II. Nein, Hirten, Nein 2:22
III. Fürchtet euch Nicht 2:32
IV. Die Engel frohlocken unsterbliche Lieder 9:53
V. Hier schlummert er! 0:26
VI. Schlaf, Sohn aus Davids Stamm 7:32
VII. Wie göttlich lächelt er! 0:58
VIII. Kind, ich liebe dich 7:09
IX. Wie wallt mein Herz! 0:50
X. Heil dem besten Hirten 3:04
Кристиан Август Якоби (1688-1725)
11-17.Weihnachtskantate “Der Himmel steht uns wieder offen”
I. Der Himmel steht uns wieder offen 5:49
II. So kommst du, Jesu 1:22
III. So merket nun das zeichen Recht 1:39
IV. Wie! Satan, zitterst du nicht 1:11
V. So geht der Satan nun in Banden 1:39
VI. Was könnte mir nun Schrecken und Furcht erwecken? 1:16
VII. Ich eigne Ddr mein Herze zu 3:24
Исполнители:
Christiane Kohl (Soprano), Annette Markert (Alto), Marcus Ullmann (Tenore), Tobias Berndt (Basso)
Sächsisches Vocalensemble
Virtuosi Saxoniae
Ludwig Güttler

Лог создания рипа

Exact Audio Copy V1.0 beta 3 from 29. August 2011
EAC extraction logfile from 17. December 2011, 1:08
Ludwig Guttler / Virtuosi Saxoniae / Homilius : Weihnachtsoratorium HoWV I.1 - Jacobi : Der Himmel steht uns wider offen
Used drive : TSSTcorpCDDVDW SE-S224Q Adapter: 1 ID: 0
Read mode : Secure
Utilize accurate stream : Yes
Defeat audio cache : Yes
Make use of C2 pointers : No
Read offset correction : 6
Overread into Lead-In and Lead-Out : No
Fill up missing offset samples with silence : Yes
Delete leading and trailing silent blocks : No
Null samples used in CRC calculations : Yes
Used interface : Native Win32 interface for Win NT & 2000
Used output format : User Defined Encoder
Selected bitrate : 896 kBit/s
Quality : High
Add ID3 tag : No
Command line compressor : C:\Program Files\Exact Audio Copy\FLAC\FLAC.EXE
Additional command line options : -6 -V -T "ARTIST=%artist%" -T "TITLE=%title%" -T "ALBUM=%albumtitle%" -T "DATE=%year%" -T "TRACKNUMBER=%tracknr%" -T "GENRE=%genre%" -T "COMMENT=%comment%" -T "BAND=%albuminterpret%" -T "ALBUMARTIST=%albuminterpret%" -T "COMPOSER=%composer%" %haslyrics%--tag-from-file=LYRICS="%lyricsfile%"%haslyrics% -T "DISCNUMBER=%cdnumber%" -T "TOTALDISCS=%totalcds%" -T "TOTALTRACKS=%numtracks%" %hascover%--picture="%coverfile%"%hascover% %source% -o %dest%
TOC of the extracted CD
Track | Start | Length | Start sector | End sector
---------------------------------------------------------
1 | 0:00.00 | 7:03.29 | 0 | 31753
2 | 7:03.29 | 2:22.49 | 31754 | 42452
3 | 9:26.03 | 2:32.71 | 42453 | 53923
4 | 11:58.74 | 9:53.61 | 53924 | 98459
5 | 21:52.60 | 0:26.63 | 98460 | 100472
6 | 22:19.48 | 7:32.33 | 100473 | 134405
7 | 29:52.06 | 0:58.27 | 134406 | 138782
8 | 30:50.33 | 7:09.63 | 138783 | 171020
9 | 38:00.21 | 0:50.54 | 171021 | 174824
10 | 38:51.00 | 3:04.40 | 174825 | 188664
11 | 41:55.40 | 5:49.69 | 188665 | 214908
12 | 47:45.34 | 1:22.50 | 214909 | 221108
13 | 49:08.09 | 1:39.09 | 221109 | 228542
14 | 50:47.18 | 1:11.57 | 228543 | 233924
15 | 51:59.00 | 1:39.51 | 233925 | 241400
16 | 53:38.51 | 1:16.56 | 241401 | 247156
17 | 54:55.32 | 3:24.54 | 247157 | 262510
Range status and errors
Selected range
Filename J:\ICE\H.CO.SV.VS.LG\Ludwig Guttler , Virtuosi Saxoniae - Homilius - Weihnachtsoratorium HoWV I.1 - Jacobi - Der Himmel steht uns wider offen.wav
Peak level 98.8 %
Extraction speed 7.4 X
Range quality 100.0 %
Test CRC 28FCD0D9
Copy CRC 28FCD0D9
Copy OK
No errors occurred
AccurateRip summary
Track 1 accurately ripped (confidence 1) [76559D6C] (AR v1)
Track 2 accurately ripped (confidence 1) [D4B61DB9] (AR v1)
Track 3 accurately ripped (confidence 1) [26EDA18E] (AR v1)
Track 4 accurately ripped (confidence 1) [7E6C3BB6] (AR v1)
Track 5 accurately ripped (confidence 1) [E493B7B0] (AR v1)
Track 6 accurately ripped (confidence 1) [63F581B2] (AR v1)
Track 7 accurately ripped (confidence 1) [AA2D0EAC] (AR v1)
Track 8 accurately ripped (confidence 1) [4DAB9A7B] (AR v1)
Track 9 accurately ripped (confidence 1) [04A5F68D] (AR v1)
Track 10 accurately ripped (confidence 1) [B7440183] (AR v1)
Track 11 accurately ripped (confidence 1) [E7B7FC1E] (AR v1)
Track 12 accurately ripped (confidence 1) [EB9052A1] (AR v1)
Track 13 accurately ripped (confidence 1) [F62D834C] (AR v1)
Track 14 accurately ripped (confidence 1) [598C0676] (AR v1)
Track 15 accurately ripped (confidence 1) [886643E8] (AR v1)
Track 16 accurately ripped (confidence 1) [ADE5ED6E] (AR v1)
Track 17 accurately ripped (confidence 1) [1A35738C] (AR v1)
All tracks accurately ripped
End of status report
---- CUETools DB Plugin V2.1.3
[CTDB TOCID: hNEr1G7rzwowtfpePGNqYDamy3Y-] disk not present in database, Submit result: hNEr1G7rzwowtfpePGNqYDamy3Y- has been uploaded
==== Log checksum B2CF2B46F1520D0A023174B3BCAAD5B30A1E8D9C8DCF9547B963F3B78B05C7AD ====
[teatrix.ru].t19911.torrent 
Торрент: Зарегистрирован [ 2016-03-19 00:29 ] · 799D8212A94BC7EA72CEED2E26EE9799E2D34D14

Скачать .torrent

Скачать

14 KB

Статус: проверено
Скачан: 1 раз
Размер: 317 MB
terms.php



Быстрый ответ

Имя:

      
Для отправки сообщений необходимо включить JavaScript
Показать сообщения:    

Текущее время: 03-Дек 22:43

Часовой пояс: UTC + 3


Вы можете начинать темы
Вы можете отвечать на сообщения
Вы не можете редактировать свои сообщения
Вы не можете удалять свои сообщения
Вы не можете голосовать в опросах
Вы не можете прикреплять файлы к сообщениям
Вы можете скачивать файлы