(Chamber Music) Gatti - Six Sonatas for Violin & Viola - Ghidoni, Zamarra - 2011, FLAC (tracks+.cue) lossless


 

[Цитировать]

Luigi Gatti - Six Sonatas for Violin & Viola - Paolo Ghidoni, violin; Alfredo Zamarra, viola
Жанр: Chamber Music
Страна-производитель диска: Germany
Год издания диска: 2011
Издатель (лейбл): Brilliant Classics
Номер по каталогу: 94145
Дата записи: 2011
Аудиокодек: FLAC
Тип рипа: tracks+.cue
Битрейт аудио: lossless
Продолжительность: 1:26:36
Источник: собственный рип
Наличие сканов в содержимом раздачи: да
Треклист:
CD 1:
[01]-[03] Sonata n. 1 in B flat major
[04]-[06] Sonata n. 2 in D major
[07]-[09] Sonata n. 3 in A major
CD 2:
[01]-[03] Sonata n. 4 in F major
[04]-[06] Sonata n. 5 in E flat major
[07]-[09] Sonata n. 6 in C major
Исполнители:
Paolo Ghidoni, violin
Alfredo Zamarra, viola

Лог создания рипа CD 1

Exact Audio Copy V1.0 beta 3 from 29. August 2011
EAC extraction logfile from 21. July 2013, 15:57
Paolo Ghidoni, Alfredo Zamarra / for Violin & Viola
Used drive : HL-DT-STRW/DVD GCC-T10N Adapter: 1 ID: 0
Read mode : Secure
Utilize accurate stream : Yes
Defeat audio cache : Yes
Make use of C2 pointers : No
Read offset correction : 102
Overread into Lead-In and Lead-Out : No
Fill up missing offset samples with silence : Yes
Delete leading and trailing silent blocks : No
Null samples used in CRC calculations : Yes
Used interface : Native Win32 interface for Win NT & 2000
Gap handling : Appended to previous track
Used output format : User Defined Encoder
Selected bitrate : 128 kBit/s
Quality : High
Add ID3 tag : No
Command line compressor : C:\Program Files\Exact Audio Copy\Flac\flac.exe
Additional command line options : -8 -V -T "ARTIST=%artist%" -T "TITLE=%title%" -T "ALBUM=%albumtitle%" -T "DATE=%year%" -T "TRACKNUMBER=%tracknr%" -T "GENRE=%genre%" -T "PERFORMER=%albuminterpret%" -T "COMPOSER=%composer%" %haslyrics%--tag-from-file=LYRICS="%lyricsfile%"%haslyrics% -T "ALBUMARTIST=%albumartist%" -T "DISCNUMBER=%cdnumber%" -T "TOTALDISCS=%totalcds%" -T "TOTALTRACKS=%numtracks%" -T "COMMENT=%comment%" %source% -o %dest%
TOC of the extracted CD
Track | Start | Length | Start sector | End sector
---------------------------------------------------------
1 | 0:00.00 | 6:19.15 | 0 | 28439
2 | 6:19.15 | 3:37.01 | 28440 | 44715
3 | 9:56.16 | 3:15.47 | 44716 | 59387
4 | 13:11.63 | 8:54.29 | 59388 | 99466
5 | 22:06.17 | 3:01.65 | 99467 | 113106
6 | 25:08.07 | 3:00.57 | 113107 | 126663
7 | 28:08.64 | 5:47.62 | 126664 | 152750
8 | 33:56.51 | 3:08.27 | 152751 | 166877
9 | 37:05.03 | 4:26.74 | 166878 | 186901
Track 1
Filename C:\Documents and Settings\Мария\Рабочий стол\TEMP\Gatti\CD 1\01 - - Sonata in B flat Major No. 1 - Allegro aperto.wav
Pre-gap length 0:00:02.00
Peak level 94.6 %
Extraction speed 2.8 X
Track quality 100.0 %
Test CRC CB2A6750
Copy CRC CB2A6750
Track not present in AccurateRip database
Copy OK
Track 2
Filename C:\Documents and Settings\Мария\Рабочий стол\TEMP\Gatti\CD 1\02 - - Sonata in B flat Major No. 1 - Adagio.wav
Pre-gap length 0:00:02.52
Peak level 90.2 %
Extraction speed 2.9 X
Track quality 100.0 %
Test CRC A0073F3E
Copy CRC A0073F3E
Track not present in AccurateRip database
Copy OK
Track 3
Filename C:\Documents and Settings\Мария\Рабочий стол\TEMP\Gatti\CD 1\03 - - Sonata in B flat Major No. 1 - Rondo- Allegro con moto.wav
Pre-gap length 0:00:02.50
Peak level 97.1 %
Extraction speed 3.1 X
Track quality 100.0 %
Test CRC A9174A20
Copy CRC A9174A20
Track not present in AccurateRip database
Copy OK
Track 4
Filename C:\Documents and Settings\Мария\Рабочий стол\TEMP\Gatti\CD 1\04 - - Sonata in D Major No. 2 - Andante.wav
Pre-gap length 0:00:06.26
Peak level 91.9 %
Extraction speed 3.8 X
Track quality 100.0 %
Test CRC B40471DD
Copy CRC B40471DD
Track not present in AccurateRip database
Copy OK
Track 5
Filename C:\Documents and Settings\Мария\Рабочий стол\TEMP\Gatti\CD 1\05 - - Sonata in D Major No. 2 - Adagio cantabile.wav
Pre-gap length 0:00:01.54
Peak level 94.7 %
Extraction speed 3.6 X
Track quality 100.0 %
Test CRC 2B0C6282
Copy CRC 2B0C6282
Track not present in AccurateRip database
Copy OK
Track 6
Filename C:\Documents and Settings\Мария\Рабочий стол\TEMP\Gatti\CD 1\06 - - Sonata in D Major No. 2 - Tempo di minuetto.wav
Pre-gap length 0:00:03.45
Peak level 96.1 %
Extraction speed 3.7 X
Track quality 100.0 %
Test CRC C3FAA131
Copy CRC C3FAA131
Track not present in AccurateRip database
Copy OK
Track 7
Filename C:\Documents and Settings\Мария\Рабочий стол\TEMP\Gatti\CD 1\07 - - Sonata in A Major No. 3 - Allegro aperto.wav
Pre-gap length 0:00:06.46
Peak level 96.0 %
Extraction speed 4.3 X
Track quality 100.0 %
Test CRC 019F2471
Copy CRC 019F2471
Track not present in AccurateRip database
Copy OK
Track 8
Filename C:\Documents and Settings\Мария\Рабочий стол\TEMP\Gatti\CD 1\08 - - Sonata in A Major No. 3 - Adagio.wav
Pre-gap length 0:00:02.43
Peak level 81.1 %
Extraction speed 4.2 X
Track quality 100.0 %
Test CRC 5B5AE265
Copy CRC 5B5AE265
Track not present in AccurateRip database
Copy OK
Track 9
Filename C:\Documents and Settings\Мария\Рабочий стол\TEMP\Gatti\CD 1\09 - - Sonata in A Major No. 3 - Rondo- Allegretto.wav
Pre-gap length 0:00:02.33
Peak level 94.9 %
Extraction speed 4.5 X
Track quality 100.0 %
Test CRC 1F126668
Copy CRC 1F126668
Track not present in AccurateRip database
Copy OK
None of the tracks are present in the AccurateRip database
No errors occurred
End of status report
==== Log checksum 42577C599A0E76FA2483DDA02950485E3B4A6BE0DAF85A038B80639373742299 ====

Лог создания рипа CD 2

Exact Audio Copy V1.0 beta 3 from 29. August 2011
EAC extraction logfile from 21. July 2013, 19:43
Paolo Ghidoni, Alfredo Zamarra / Gatti - Six Sonatas for Violin & Viola
Used drive : HL-DT-STRW/DVD GCC-T10N Adapter: 1 ID: 0
Read mode : Secure
Utilize accurate stream : Yes
Defeat audio cache : Yes
Make use of C2 pointers : No
Read offset correction : 102
Overread into Lead-In and Lead-Out : No
Fill up missing offset samples with silence : Yes
Delete leading and trailing silent blocks : No
Null samples used in CRC calculations : Yes
Used interface : Native Win32 interface for Win NT & 2000
Gap handling : Appended to previous track
Used output format : User Defined Encoder
Selected bitrate : 128 kBit/s
Quality : High
Add ID3 tag : No
Command line compressor : C:\Program Files\Exact Audio Copy\Flac\flac.exe
Additional command line options : -8 -V -T "ARTIST=%artist%" -T "TITLE=%title%" -T "ALBUM=%albumtitle%" -T "DATE=%year%" -T "TRACKNUMBER=%tracknr%" -T "GENRE=%genre%" -T "PERFORMER=%albuminterpret%" -T "COMPOSER=%composer%" %haslyrics%--tag-from-file=LYRICS="%lyricsfile%"%haslyrics% -T "ALBUMARTIST=%albumartist%" -T "DISCNUMBER=%cdnumber%" -T "TOTALDISCS=%totalcds%" -T "TOTALTRACKS=%numtracks%" -T "COMMENT=%comment%" %source% -o %dest%
TOC of the extracted CD
Track | Start | Length | Start sector | End sector
---------------------------------------------------------
1 | 0:00.00 | 6:10.46 | 0 | 27795
2 | 6:10.46 | 2:41.21 | 27796 | 39891
3 | 8:51.67 | 3:11.48 | 39892 | 54264
4 | 12:03.40 | 7:59.35 | 54265 | 90224
5 | 20:03.00 | 5:38.37 | 90225 | 115611
6 | 25:41.37 | 3:47.58 | 115612 | 132694
7 | 29:29.20 | 6:12.07 | 132695 | 160601
8 | 35:41.27 | 5:33.09 | 160602 | 185585
9 | 41:14.36 | 3:50.06 | 185586 | 202841
Track 1
Filename C:\Documents and Settings\Мария\Рабочий стол\TEMP\Gatti\CD 2\01 - - Sonata in F Major No. 4 - Cantabile—Allegro con spirito.wav
Pre-gap length 0:00:02.00
Peak level 95.3 %
Extraction speed 2.8 X
Track quality 100.0 %
Test CRC D4D82647
Copy CRC D4D82647
Track not present in AccurateRip database
Copy OK
Track 2
Filename C:\Documents and Settings\Мария\Рабочий стол\TEMP\Gatti\CD 2\02 - - Sonata in F Major No. 4 - Minuetto.wav
Pre-gap length 0:00:02.30
Peak level 95.4 %
Extraction speed 2.7 X
Track quality 100.0 %
Test CRC 9CF1DC81
Copy CRC 9CF1DC81
Track not present in AccurateRip database
Copy OK
Track 3
Filename C:\Documents and Settings\Мария\Рабочий стол\TEMP\Gatti\CD 2\03 - - Sonata in F Major No. 4 - Finale- Allegro assai.wav
Pre-gap length 0:00:03.16
Peak level 96.8 %
Extraction speed 3.0 X
Track quality 100.0 %
Test CRC 17BD25AF
Copy CRC 17BD25AF
Track not present in AccurateRip database
Copy OK
Track 4
Filename C:\Documents and Settings\Мария\Рабочий стол\TEMP\Gatti\CD 2\04 - - Sonata in E flat Major No. 5 - Moderato.wav
Pre-gap length 0:00:06.57
Peak level 95.5 %
Extraction speed 3.7 X
Track quality 100.0 %
Test CRC C77B3B44
Copy CRC C77B3B44
Track not present in AccurateRip database
Copy OK
Track 5
Filename C:\Documents and Settings\Мария\Рабочий стол\TEMP\Gatti\CD 2\05 - - Sonata in E flat Major No. 5 - Larghetto espressivo.wav
Pre-gap length 0:00:03.15
Peak level 94.9 %
Extraction speed 3.9 X
Track quality 100.0 %
Test CRC 2360EA1E
Copy CRC 2360EA1E
Track not present in AccurateRip database
Copy OK
Track 6
Filename C:\Documents and Settings\Мария\Рабочий стол\TEMP\Gatti\CD 2\06 - - Sonata in E flat Major No. 5 - Allegretto grazioso.wav
Pre-gap length 0:00:02.48
Peak level 96.7 %
Extraction speed 3.9 X
Track quality 100.0 %
Test CRC 94B8FA47
Copy CRC 94B8FA47
Track not present in AccurateRip database
Copy OK
Track 7
Filename C:\Documents and Settings\Мария\Рабочий стол\TEMP\Gatti\CD 2\07 - - Sonata in C Major No. 6 - Un allegro vivace.wav
Pre-gap length 0:00:06.55
Peak level 98.8 %
Extraction speed 4.4 X
Track quality 100.0 %
Test CRC A63651F1
Copy CRC A63651F1
Track not present in AccurateRip database
Copy OK
Track 8
Filename C:\Documents and Settings\Мария\Рабочий стол\TEMP\Gatti\CD 2\08 - - Sonata in C Major No. 6 - Adagio cantabile.wav
Pre-gap length 0:00:02.65
Peak level 89.2 %
Extraction speed 4.6 X
Track quality 100.0 %
Test CRC FA63DED4
Copy CRC FA63DED4
Track not present in AccurateRip database
Copy OK
Track 9
Filename C:\Documents and Settings\Мария\Рабочий стол\TEMP\Gatti\CD 2\09 - - Sonata in C Major No. 6 - Rondo- Allegretto.wav
Peak level 96.6 %
Extraction speed 4.0 X
Track quality 99.9 %
Test CRC 61A4004B
Copy CRC 61A4004B
Track not present in AccurateRip database
Copy OK
None of the tracks are present in the AccurateRip database
No errors occurred
End of status report
==== Log checksum 5C735EEDFD190455DDF24290D9AC8EDBB05FCAF42547794AD0E6D00A06A3DCCB ====

Содержание индексной карты (.CUE) CD1

REM DISCID 7609BC09
REM COMMENT "ExactAudioCopy v1.0b3"
PERFORMER "Paolo Ghidoni, Alfredo Zamarra"
TITLE "for Violin & Viola"
FILE "01 - - Sonata in B flat Major No. 1 - Allegro aperto.wav" WAVE
TRACK 01 AUDIO
TITLE "Sonata in B flat Major No. 1 - Allegro aperto"
PERFORMER " "
ISRC NLY331105300
INDEX 01 00:00:00
TRACK 02 AUDIO
TITLE "Sonata in B flat Major No. 1 - Adagio"
PERFORMER " "
ISRC NLY331105301
INDEX 00 06:16:38
FILE "02 - - Sonata in B flat Major No. 1 - Adagio.wav" WAVE
INDEX 01 00:00:00
TRACK 03 AUDIO
TITLE "Sonata in B flat Major No. 1 - Rondo: Allegro con moto"
PERFORMER " "
ISRC NLY331105302
INDEX 00 03:34:26
FILE "03 - - Sonata in B flat Major No. 1 - Rondo- Allegro con moto.wav" WAVE
INDEX 01 00:00:00
TRACK 04 AUDIO
TITLE "Sonata in D Major No. 2 - Andante"
PERFORMER " "
ISRC NLY331105303
INDEX 00 03:09:21
FILE "04 - - Sonata in D Major No. 2 - Andante.wav" WAVE
INDEX 01 00:00:00
TRACK 05 AUDIO
TITLE "Sonata in D Major No. 2 - Adagio cantabile"
PERFORMER " "
ISRC NLY331105304
INDEX 00 08:52:50
FILE "05 - - Sonata in D Major No. 2 - Adagio cantabile.wav" WAVE
INDEX 01 00:00:00
TRACK 06 AUDIO
TITLE "Sonata in D Major No. 2 - Tempo di minuetto"
PERFORMER " "
ISRC NLY331105305
INDEX 00 02:58:20
FILE "06 - - Sonata in D Major No. 2 - Tempo di minuetto.wav" WAVE
INDEX 01 00:00:00
TRACK 07 AUDIO
TITLE "Sonata in A Major No. 3 - Allegro aperto"
PERFORMER " "
ISRC NLY331105306
INDEX 00 02:54:11
FILE "07 - - Sonata in A Major No. 3 - Allegro aperto.wav" WAVE
INDEX 01 00:00:00
TRACK 08 AUDIO
TITLE "Sonata in A Major No. 3 - Adagio"
PERFORMER " "
ISRC NLY331105307
INDEX 00 05:45:19
FILE "08 - - Sonata in A Major No. 3 - Adagio.wav" WAVE
INDEX 01 00:00:00
TRACK 09 AUDIO
TITLE "Sonata in A Major No. 3 - Rondo: Allegretto"
PERFORMER " "
ISRC NLY331105308
INDEX 00 03:05:69
FILE "09 - - Sonata in A Major No. 3 - Rondo- Allegretto.wav" WAVE
INDEX 01 00:00:00

Содержание индексной карты (.CUE) CD2

REM DISCID 690A9009
REM COMMENT "ExactAudioCopy v1.0b3"
PERFORMER "Paolo Ghidoni, Alfredo Zamarra"
TITLE "Six Sonatas for Violin & Viola"
FILE "01 - - Sonata in F Major No. 4 - Cantabile—Allegro con spirito.wav" WAVE
TRACK 01 AUDIO
TITLE "Sonata in F Major No. 4 - Cantabile—Allegro con spirito"
PERFORMER " "
ISRC NLY331105309
INDEX 01 00:00:00
TRACK 02 AUDIO
TITLE "Sonata in F Major No. 4 - Minuetto"
PERFORMER " "
ISRC NLY331105310
INDEX 00 06:08:16
FILE "02 - - Sonata in F Major No. 4 - Minuetto.wav" WAVE
INDEX 01 00:00:00
TRACK 03 AUDIO
TITLE "Sonata in F Major No. 4 - Finale: Allegro assai"
PERFORMER " "
ISRC NLY331105311
INDEX 00 02:38:05
FILE "03 - - Sonata in F Major No. 4 - Finale- Allegro assai.wav" WAVE
INDEX 01 00:00:00
TRACK 04 AUDIO
TITLE "Sonata in E flat Major No. 5 - Moderato"
PERFORMER " "
ISRC NLY331105312
INDEX 00 03:04:66
FILE "04 - - Sonata in E flat Major No. 5 - Moderato.wav" WAVE
INDEX 01 00:00:00
TRACK 05 AUDIO
TITLE "Sonata in E flat Major No. 5 - Larghetto espressivo"
PERFORMER " "
ISRC NLY331105313
INDEX 00 07:56:20
FILE "05 - - Sonata in E flat Major No. 5 - Larghetto espressivo.wav" WAVE
INDEX 01 00:00:00
TRACK 06 AUDIO
TITLE "Sonata in E flat Major No. 5 - Allegretto grazioso"
PERFORMER " "
ISRC NLY331105314
INDEX 00 05:35:64
FILE "06 - - Sonata in E flat Major No. 5 - Allegretto grazioso.wav" WAVE
INDEX 01 00:00:00
TRACK 07 AUDIO
TITLE "Sonata in C Major No. 6 - Un allegro vivace"
PERFORMER " "
ISRC NLY331105315
INDEX 00 03:41:03
FILE "07 - - Sonata in C Major No. 6 - Un allegro vivace.wav" WAVE
INDEX 01 00:00:00
TRACK 08 AUDIO
TITLE "Sonata in C Major No. 6 - Adagio cantabile"
PERFORMER " "
ISRC NLY331105316
INDEX 00 06:09:17
FILE "08 - - Sonata in C Major No. 6 - Adagio cantabile.wav" WAVE
INDEX 01 00:00:00
FILE "09 - - Sonata in C Major No. 6 - Rondo- Allegretto.wav" WAVE
TRACK 09 AUDIO
TITLE "Sonata in C Major No. 6 - Rondo: Allegretto"
PERFORMER " "
ISRC NLY331105317
INDEX 01 00:00:00



Показать сообщения:    

Текущее время: 03-Дек 09:50

Часовой пояс: UTC + 3


Вы не можете начинать темы
Вы не можете отвечать на сообщения
Вы не можете редактировать свои сообщения
Вы не можете удалять свои сообщения
Вы не можете голосовать в опросах
Вы не можете прикреплять файлы к сообщениям
Вы не можете скачивать файлы