(Sacred) Johann Sebastian Bach - St. John Passion {Johannes-Passion}, BWV 245 (Oxford New College Choir, Collegium Novum, Edward Higginbottom) - 2003, FLAC (image+.cue) lossless


Статистика раздачи [Обновить пиров]
Размер:  503 MB   |    Зарегистрирован:  8 месяцев 21 день   |    Скачан:  0 раз

Полного источника не было: Никогда

Личеров:  3  [  0 KB/s  ]   Подробная статистика пиров
 
   
 
 
 

[Цитировать]

Johann Sebastian Bach - St. John PassionOxford New College Choir, Collegium Novum, Edward Higginbottom
Жанр: Sacred
Страна-производитель диска: EU
Год издания диска: 2003
Издатель (лейбл): Naxos
Номер по каталогу: 8.557296-97
Дата записи: 2001
Аудиокодек: FLAC
Тип рипа: image+.cue
Битрейт аудио: lossless
Продолжительность: 1:50:17
Источник: собственный рип
Наличие сканов в содержимом раздачи: да
Исполнители:
Colin Baldy - bass
Matthew Beale - tenor
John Bernays - bass
James Bowman - counter-tenor
Eamonn Dougan - bass
James Gilchrist - tenor
Joe Littlewood - soprano
Oxford New College Choir
Collegium Novum
Edward Higginbottom
- conductor

ТреклистCD 1

1. Herr, unser Herrscher 00:09:22
2. Jesus ging mit seinen Jungern 00:02:24
3. O gross Lieb, o Lieb ohn alle Masse 00:00:48
4. Auf dass das Wort erfullet wurde 00:01:02
5. Dein Will gescheh, Herr Gott, zugleich 00:00:50
6. Die Schar aber und der Oberhauptmann 00:00:44
7. Von den Strikken meiner Sunden 00:04:28
8. Simon Petrus aber folgete Jesu nach 00:00:16
9. Ich folge dir gleichfalls 00:04:01
10. Derselbige Junger war dem Hohenpriester bekannt 00:03:07
11. Wer hat dich so geschlagen 00:01:36
12. Und Hannas sandte ihn gebunden 00:02:28
13. Ach, mein Sinn, wo willt du endlich hin 00:02:57
14. Petrus, der nicht denkt zuruck 00:01:22

CD 2

1. Christus, der uns selig macht 00:00:59
2. Da fuhreten sie Jesum von Kaipha 00:04:00
3. Ach, grosser Konig, gross zu allen Zeiten 00:01:41
4. Da sprach Pilatus zu ihm: So bist du dennoch ein Konig 00:01:58
5. Betrachte, meine Seel 00:02:15
6. Erwage, wie sein blutgefarbter Rukken 00:08:11
7. Und die Kriegsknechte flochten eine Krone 00:05:44
8. Durch dein Gefangnis, Gottes Sohn 00:00:54
9. Die Jüden aber schrieen und sprachen 00:04:06
10. Eilt, ihr angefochtnen Seelen 00:04:14
11. Allda kreuzigten sie ihn 00:02:14
12. In meines Herzens Grunde 00:00:53
13. Die Kriegsknechte aber, da sie Jesum gekreuziget hatten 00:01:56
14. Auf dass erfullet wurde die Schrift 00:01:44
15. Er nahm alles wohl in acht 00:01:10
16. Und von Stund an nahm sie der Junger zu sich 00:01:22
17. Es ist vollbracht 00:04:47
18. Und neiget das Haupt und verschied 00:00:27
19. Mein teurer Heiland, lass dich fragen 00:03:49
20. Und siehe da, der Vorhang im Tempel zerriss 00:00:24
21. Mein Herz, indem die ganze Welt 00:01:03
22. Zerfliesse, mein Herze 00:06:20
23. Die Juden aber, dieweil es der Rusttag war 00:02:05
24. O hilf, Christe, Gottes Sohn 00:00:57
25. Darnach bat Pilatum Joseph von Arimathia 00:02:15
26. Ruht wohl, ihr heiligen Gebeine 00:07:07
27. Ach Herr, lass dein lieb Engelein 00:02:18

Лог создания рипа

Лог создания рипа CD1

Exact Audio Copy V1.0 beta 2 from 29. April 2011
EAC extraction logfile from 6. December 2014, 11:41
Choir of New College Oxford / St John Passion - CD1
Used drive : _NEC DVD_RW ND-3551A Adapter: 0 ID: 0
Read mode : Secure
Utilize accurate stream : Yes
Defeat audio cache : Yes
Make use of C2 pointers : No
Read offset correction : 48
Overread into Lead-In and Lead-Out : No
Fill up missing offset samples with silence : Yes
Delete leading and trailing silent blocks : No
Null samples used in CRC calculations : Yes
Used interface : Native Win32 interface for Win NT & 2000
Used output format : User Defined Encoder
Selected bitrate : 128 kBit/s
Quality : High
Add ID3 tag : No
Command line compressor : D:\Program Files\Exact Audio Copy\Flac\flac.exe
Additional command line options : -V -8 -T "Date=%year%" -T "Genre=%genre%" %source%
TOC of the extracted CD
Track | Start | Length | Start sector | End sector
---------------------------------------------------------
1 | 0:00.00 | 9:21.65 | 0 | 42139
2 | 9:21.65 | 2:24.02 | 42140 | 52941
3 | 11:45.67 | 0:48.13 | 52942 | 56554
4 | 12:34.05 | 1:02.17 | 56555 | 61221
5 | 13:36.22 | 0:50.35 | 61222 | 65006
6 | 14:26.57 | 0:44.15 | 65007 | 68321
7 | 15:10.72 | 4:28.30 | 68322 | 88451
8 | 19:39.27 | 0:15.53 | 88452 | 89629
9 | 19:55.05 | 4:00.62 | 89630 | 107691
10 | 23:55.67 | 3:07.08 | 107692 | 121724
11 | 27:03.00 | 1:35.47 | 121725 | 128896
12 | 28:38.47 | 2:27.53 | 128897 | 139974
13 | 31:06.25 | 2:56.72 | 139975 | 153246
14 | 34:03.22 | 1:21.55 | 153247 | 159376
Range status and errors
Selected range
Filename C:\RIP\Bach - St John Passion (CD1).wav
Peak level 99.8 %
Extraction speed 3.0 X
Range quality 100.0 %
Test CRC 4E5C793E
Copy CRC 4E5C793E
Copy OK
No errors occurred
AccurateRip summary
Track 1 accurately ripped (confidence 12) [07E31DB8] (AR v2)
Track 2 accurately ripped (confidence 12) [4F32CB14] (AR v2)
Track 3 accurately ripped (confidence 12) [46A9FF99] (AR v2)
Track 4 accurately ripped (confidence 12) [9911E69E] (AR v2)
Track 5 accurately ripped (confidence 12) [F05CB469] (AR v2)
Track 6 accurately ripped (confidence 12) [55668BD8] (AR v2)
Track 7 accurately ripped (confidence 12) [BC00015F] (AR v2)
Track 8 accurately ripped (confidence 12) [0BB79CA5] (AR v2)
Track 9 accurately ripped (confidence 12) [29D8966C] (AR v2)
Track 10 accurately ripped (confidence 12) [9E646526] (AR v2)
Track 11 accurately ripped (confidence 12) [CF3DF680] (AR v2)
Track 12 accurately ripped (confidence 12) [E4D430E5] (AR v2)
Track 13 accurately ripped (confidence 12) [DEB940CD] (AR v2)
Track 14 accurately ripped (confidence 12) [5AA7CA30] (AR v2)
All tracks accurately ripped
End of status report
==== Log checksum DE448EE673DCC1274477C7D84719A8701DAA386BBD42CB738D8E503040F3EA20 ====

Лог создания рипа CD2

Exact Audio Copy V1.0 beta 2 from 29. April 2011
EAC extraction logfile from 6. December 2014, 12:42
The Choir of New College Oxford / JS Bach - St John Passion - CD2
Used drive : _NEC DVD_RW ND-3551A Adapter: 0 ID: 0
Read mode : Secure
Utilize accurate stream : Yes
Defeat audio cache : Yes
Make use of C2 pointers : No
Read offset correction : 48
Overread into Lead-In and Lead-Out : No
Fill up missing offset samples with silence : Yes
Delete leading and trailing silent blocks : No
Null samples used in CRC calculations : Yes
Used interface : Native Win32 interface for Win NT & 2000
Used output format : User Defined Encoder
Selected bitrate : 128 kBit/s
Quality : High
Add ID3 tag : No
Command line compressor : D:\Program Files\Exact Audio Copy\Flac\flac.exe
Additional command line options : -V -8 -T "Date=%year%" -T "Genre=%genre%" %source%
TOC of the extracted CD
Track | Start | Length | Start sector | End sector
---------------------------------------------------------
1 | 0:00.00 | 0:58.72 | 0 | 4421
2 | 0:58.72 | 3:59.55 | 4422 | 22401
3 | 4:58.52 | 1:43.18 | 22402 | 30144
4 | 6:41.70 | 1:55.40 | 30145 | 38809
5 | 8:37.35 | 2:16.12 | 38810 | 49021
6 | 10:53.47 | 8:09.45 | 49022 | 85741
7 | 19:03.17 | 5:44.10 | 85742 | 111551
8 | 24:47.27 | 0:54.23 | 111552 | 115624
9 | 25:41.50 | 4:06.32 | 115625 | 134106
10 | 29:48.07 | 4:13.48 | 134107 | 153129
11 | 34:01.55 | 2:14.27 | 153130 | 163206
12 | 36:16.07 | 0:52.43 | 163207 | 167149
13 | 37:08.50 | 1:55.45 | 167150 | 175819
14 | 39:04.20 | 1:44.05 | 175820 | 183624
15 | 40:48.25 | 1:10.05 | 183625 | 188879
16 | 41:58.30 | 1:22.32 | 188880 | 195061
17 | 43:20.62 | 4:47.00 | 195062 | 216586
18 | 48:07.62 | 0:29.55 | 216587 | 218816
19 | 48:37.42 | 3:45.55 | 218817 | 235746
20 | 52:23.22 | 0:23.70 | 235747 | 237541
21 | 52:47.17 | 1:06.25 | 237542 | 242516
22 | 53:53.42 | 6:16.70 | 242517 | 270786
23 | 60:10.37 | 2:05.23 | 270787 | 280184
24 | 62:15.60 | 0:56.47 | 280185 | 284431
25 | 63:12.32 | 2:16.73 | 284432 | 294704
26 | 65:29.30 | 7:04.45 | 294705 | 326549
27 | 72:34.00 | 2:18.00 | 326550 | 336899
Range status and errors
Selected range
Filename C:\RIP\Bach - St John Passion (CD2).wav
Peak level 98.0 %
Extraction speed 3.0 X
Range quality 99.9 %
Test CRC CA38B2D2
Copy CRC CA38B2D2
Copy OK
No errors occurred
AccurateRip summary
Track 1 accurately ripped (confidence 12) [660949FC] (AR v2)
Track 2 accurately ripped (confidence 12) [FDE83C63] (AR v2)
Track 3 accurately ripped (confidence 12) [20824437] (AR v2)
Track 4 accurately ripped (confidence 12) [A9F353A6] (AR v2)
Track 5 accurately ripped (confidence 12) [220E9032] (AR v2)
Track 6 accurately ripped (confidence 12) [E9DA1436] (AR v2)
Track 7 accurately ripped (confidence 12) [37F9C0F8] (AR v2)
Track 8 accurately ripped (confidence 12) [CB748EBB] (AR v2)
Track 9 accurately ripped (confidence 12) [439CE211] (AR v2)
Track 10 accurately ripped (confidence 12) [28F9F226] (AR v2)
Track 11 accurately ripped (confidence 12) [54696318] (AR v2)
Track 12 accurately ripped (confidence 12) [99832C63] (AR v2)
Track 13 accurately ripped (confidence 12) [D92E50CD] (AR v2)
Track 14 accurately ripped (confidence 12) [55215463] (AR v2)
Track 15 accurately ripped (confidence 12) [92028C25] (AR v2)
Track 16 accurately ripped (confidence 12) [39079E1C] (AR v2)
Track 17 accurately ripped (confidence 12) [1CBA1ACC] (AR v2)
Track 18 accurately ripped (confidence 12) [3A4E985E] (AR v2)
Track 19 accurately ripped (confidence 12) [2F7B1219] (AR v2)
Track 20 accurately ripped (confidence 12) [55FD807B] (AR v2)
Track 21 accurately ripped (confidence 12) [2256BDC9] (AR v2)
Track 22 accurately ripped (confidence 12) [D6C21AFC] (AR v2)
Track 23 accurately ripped (confidence 12) [C8348C9B] (AR v2)
Track 24 accurately ripped (confidence 12) [23920D4A] (AR v2)
Track 25 accurately ripped (confidence 12) [59AD8F8A] (AR v2)
Track 26 accurately ripped (confidence 12) [50FE9BDA] (AR v2)
Track 27 accurately ripped (confidence 12) [2BF30402] (AR v2)
All tracks accurately ripped
End of status report
==== Log checksum E347E0528E57DBC00092113434AAB745F2AD45B4823D8E36A3B775BD5DFBCA54 ====
[teatrix.ru].t19914.torrent 
Торрент: Зарегистрирован [ 2016-03-19 00:26 ] · 04A4370F41E0C5C52C85DE4C3446046D539B24D4

Скачать .torrent

Скачать

21 KB

Статус: проверено
Скачан: 0 раз
Размер: 503 MB
terms.php



Быстрый ответ

Имя:

      
Для отправки сообщений необходимо включить JavaScript
Показать сообщения:    

Текущее время: 10-Дек 00:19

Часовой пояс: UTC + 3


Вы можете начинать темы
Вы можете отвечать на сообщения
Вы не можете редактировать свои сообщения
Вы не можете удалять свои сообщения
Вы не можете голосовать в опросах
Вы не можете прикреплять файлы к сообщениям
Вы можете скачивать файлы