Киногерой. Век русской мистификации (Роман Саульский) [2011, Документальный, SATRip]


Статистика раздачи [Обновить пиров]
Размер:  644 MB   |    Зарегистрирован:  8 месяцев 21 день   |    Скачан:  0 раз

Полного источника не было: Никогда

Личеров:  3  [  0 KB/s  ]   Подробная статистика пиров
 
   
 
 
 

[Цитировать]

Киногерой. Век русской мистификации
Дата/Год выпуска: 2011
Страна: Россия
Жанр: Документальный
Продолжительность: 00:25:58+00:25:45
Перевод: Не требуется
Режиссер: Роман Саульский
Телеканал: Культура
Описание: Фильм прослеживает трансформацию отечественных киногероев с 1930-х годов до дня сегодняшнего на примере образа Золушки. Именно этот сказочный архетип дает ключ к пониманию феномена советского кино.
Героини фильмов "Светлый путь", "Интердевочка", "Служебный роман" и "Глянец". Что между ними общего? И почему зрительское сердце безошибочно откликается на Золушку, вычленяя ее из множества социальных типов?
Участвуют: Эльдар Рязанов, Петр Тодоровский, Роман Качанов, Алиса Фрейндлих, В. Фомин, Л. Толстой, Александр Дугин, А. Иванова.
качество: SATRip
формат: AVI
Видео: XviD, ~ 1600 Kбит/с, 704х416, 25.000 fps
Аудио: MP3, 2 ch, 128 Кбит/с, 48.0 KHz

Отчёт MediaInfo:

I:\Киногерой. Век русской мистификации\Киногерой.2 части из 2.2011.SATRip\Киногерой.часть 1 из 2.2014.SATRip.avi
General
Complete name : I:\Киногерой. Век русской мистификации\Киногерой.2 части из 2.2011.SATRip\Киногерой.часть 1 из 2.2014.SATRip.avi
Format : AVI
Format/Info : Audio Video Interleave
File size : 336 MiB
Duration : 25mn 58s
Overall bit rate : 1 811 Kbps
Writing application : VirtualDubMod 1.5.10.3 | www.virtualdub-fr.org || (build 2550/release)
Writing library : Boilsoft AVI tool build 30012/release
Video #0
ID : 0
Format : MPEG-4 Visual
Format profile : Advanced Simple@L5
Format settings, BVOP : 2
Format settings, QPel : No
Format settings, GMC : No warppoints
Format settings, Matrix : Default (MPEG)
Codec ID : XVID
Codec ID/Hint : XviD
Duration : 25mn 58s
Bit rate : 1 674 Kbps
Width : 704 pixels
Height : 416 pixels
Display aspect ratio : 1.692
Frame rate : 25.000 fps
Color space : YUV
Chroma subsampling : 4:2:0
Bit depth : 8 bits
Scan type : Progressive
Compression mode : Lossy
Bits/(Pixel*Frame) : 0.229
Stream size : 311 MiB (92%)
Writing library : XviD 1.2.1 (UTC 2008-12-04)
Audio #1
ID : 1
Format : MPEG Audio
Format version : Version 1
Format profile : Layer 3
Codec ID : 55
Codec ID/Hint : MP3
Duration : 25mn 58s
Bit rate mode : Constant
Bit rate : 128 Kbps
Channel count : 2 channels
Sampling rate : 48.0 KHz
Compression mode : Lossy
Stream size : 23.8 MiB (7%)
Alignment : Aligned on interleaves
Interleave, duration : 40 ms (1.00 video frame)
Interleave, preload duration : 504 ms
Writing library : LAME3.99r
Encoding settings : -m s -V 4 -q 2 -lowpass 17 -b 128

Скриншоты

[teatrix.ru].t19915.torrent 
Торрент: Зарегистрирован [ 2016-03-19 00:30 ] · FBE6C9E78C2B713086A88DA6FAE3C6B74D33DDC4

Скачать .torrent

Скачать

13 KB

Статус: проверено
Скачан: 0 раз
Размер: 644 MB
terms.php



Показать сообщения:    

Текущее время: 09-Дек 22:26

Часовой пояс: UTC + 3


Вы не можете начинать темы
Вы не можете отвечать на сообщения
Вы не можете редактировать свои сообщения
Вы не можете удалять свои сообщения
Вы не можете голосовать в опросах
Вы не можете прикреплять файлы к сообщениям
Вы можете скачивать файлы