(Classical) Бортнянский - Арии, Песни, Концертная симфония (Наталья Герасимова, Ансамбль Барокко, Игорь Попков) - 2003, FLAC (tracks+.cue) lossless


 

[Цитировать]

Бортнянский - Арии, Песни, Концертная симфония (Наталья Герасимова, Ансамбль Барокко, Игорь Попков)
Жанр: Classical
Страна-производитель диска: Российская Федерация
Год издания диска: 2003
Издатель (лейбл): RCD music
Номер по каталогу: RCD 30644
Дата записи: 1996
Аудиокодек: FLAC
Тип рипа: tracks+.cue
Битрейт аудио: lossless
Продолжительность: 54:58
Источник: собственный рип
Наличие сканов в содержимом раздачи: да
Треклист:
Dmitri Bortnyansky (1751-1825)
Opera „La féte du signeur“
1. Allegro spiritoso 4:59
Eight songs and romances, dedicated to the Great Dutches Yelizaveta Alekseyevna
2. Hymn to the Moon 3:06
3. About Pola and Virginia 6:02
4. Poor Cowboy 2:28
5. Ismena Believes and Stays True 2:54
6. Cupid with Wings 2:00
7. About Flowers 3:50
8. About beautiful Ghirsis 3:20
9. Good-bye, Good-bye 2:16
Opera "Le fils rival, on la moderne Stratonice"
10. Leonora's aria 3:04
Opera "La fête du signeur"
11. Babetta's aria 2:13
Sinfonie Concertante B dur
12. Allegro maestoso 8:30
13. Largetto 5:08
14. Allegretto 5:07
Исполнители:
GERASIMOVA, Natalia
MOROZ, Sergey
MOURAVLEV, Yuri
PISKOUNOV, Andrei
POPKOV, Igor
VASILIEV, Victor
Baroque Chamber Ensemble

Лог создания рипа

Exact Audio Copy V0.99 prebeta 5 from 4. May 2009
EAC extraction logfile from 20. June 2012, 13:41
Barocco / Dmitri Bortnyansky
Used drive : PLEXTOR DVDR PX-800A Adapter: 1 ID: 0
Read mode : Secure
Utilize accurate stream : Yes
Defeat audio cache : Yes
Make use of C2 pointers : No
Read offset correction : 48
Overread into Lead-In and Lead-Out : No
Fill up missing offset samples with silence : Yes
Delete leading and trailing silent blocks : No
Null samples used in CRC calculations : No
Used interface : Native Win32 interface for Win NT & 2000
Gap handling : Appended to previous track
Used output format : User Defined Encoder
Selected bitrate : 1024 kBit/s
Quality : High
Add ID3 tag : No
Command line compressor : C:\Program Files\Exact Audio Copy\FLAC\FLAC.EXE
Additional command line options : -8 -V -T "ARTIST=%a" -T "TITLE=%t" -T "ALBUM=%g" -T "DATE=%y" -T "TRACKNUMBER=%n" -T "GENRE=%m" -T "COMMENT=%e" %s -o %d
TOC of the extracted CD
Track | Start | Length | Start sector | End sector
---------------------------------------------------------
1 | 0:00.30 | 4:59.09 | 30 | 22463
2 | 4:59.39 | 3:06.73 | 22464 | 36486
3 | 8:06.37 | 6:02.25 | 36487 | 63661
4 | 14:08.62 | 2:28.11 | 63662 | 74772
5 | 16:36.73 | 2:55.01 | 74773 | 87898
6 | 19:31.74 | 2:00.41 | 87899 | 96939
7 | 21:32.40 | 3:50.27 | 96940 | 114216
8 | 25:22.67 | 3:20.21 | 114217 | 129237
9 | 28:43.13 | 2:16.04 | 129238 | 139441
10 | 30:59.17 | 3:04.36 | 139442 | 153277
11 | 34:03.53 | 2:13.35 | 153278 | 163287
12 | 36:17.13 | 8:30.12 | 163288 | 201549
13 | 44:47.25 | 5:08.50 | 201550 | 224699
14 | 49:56.00 | 5:07.43 | 224700 | 247767
Track 1
Filename E:\1111\Bortnyansky.Silver_Album-Barocco,Igor_Popkov\01 - Allegro Spiritoso.wav
Pre-gap length 0:00:02.30
Peak level 100.0 %
Track quality 100.0 %
Test CRC D86EF922
Copy CRC D86EF922
Track not present in AccurateRip database
Copy OK
Track 2
Filename E:\1111\Bortnyansky.Silver_Album-Barocco,Igor_Popkov\02 - Hymn To The Moon.wav
Peak level 63.7 %
Track quality 99.9 %
Test CRC 5C1B5A37
Copy CRC 5C1B5A37
Track not present in AccurateRip database
Copy OK
Track 3
Filename E:\1111\Bortnyansky.Silver_Album-Barocco,Igor_Popkov\03 - About Pola And Virginia.wav
Peak level 93.7 %
Track quality 100.0 %
Test CRC 5C48B8BE
Copy CRC 5C48B8BE
Track not present in AccurateRip database
Copy OK
Track 4
Filename E:\1111\Bortnyansky.Silver_Album-Barocco,Igor_Popkov\04 - Poor Cowboy.wav
Peak level 86.5 %
Track quality 100.0 %
Test CRC 705E93E6
Copy CRC 705E93E6
Track not present in AccurateRip database
Copy OK
Track 5
Filename E:\1111\Bortnyansky.Silver_Album-Barocco,Igor_Popkov\05 - Ismena Believes And Stays True.wav
Peak level 71.9 %
Track quality 99.8 %
Test CRC 5D976109
Copy CRC 5D976109
Track not present in AccurateRip database
Copy OK
Track 6
Filename E:\1111\Bortnyansky.Silver_Album-Barocco,Igor_Popkov\06 - Cupid With Wings.wav
Peak level 88.1 %
Track quality 99.9 %
Test CRC 5F3CD326
Copy CRC 5F3CD326
Track not present in AccurateRip database
Copy OK
Track 7
Filename E:\1111\Bortnyansky.Silver_Album-Barocco,Igor_Popkov\07 - About Flowers.wav
Peak level 58.7 %
Track quality 100.0 %
Test CRC F07200AE
Copy CRC F07200AE
Track not present in AccurateRip database
Copy OK
Track 8
Filename E:\1111\Bortnyansky.Silver_Album-Barocco,Igor_Popkov\08 - About Beautiful Ghirsis.wav
Peak level 75.0 %
Track quality 100.0 %
Test CRC 8C44ED8E
Copy CRC 8C44ED8E
Track not present in AccurateRip database
Copy OK
Track 9
Filename E:\1111\Bortnyansky.Silver_Album-Barocco,Igor_Popkov\09 - Good-Bye, Good-Bye.wav
Peak level 99.9 %
Track quality 100.0 %
Test CRC 7F28DFAB
Copy CRC 7F28DFAB
Track not present in AccurateRip database
Copy OK
Track 10
Filename E:\1111\Bortnyansky.Silver_Album-Barocco,Igor_Popkov\10 - Leonora'S Aria.wav
Peak level 100.0 %
Track quality 100.0 %
Test CRC 897CB730
Copy CRC 897CB730
Track not present in AccurateRip database
Copy OK
Track 11
Filename E:\1111\Bortnyansky.Silver_Album-Barocco,Igor_Popkov\11 - Babetta'S Aria.wav
Peak level 100.0 %
Track quality 99.9 %
Test CRC 233C5E42
Copy CRC 233C5E42
Track not present in AccurateRip database
Copy OK
Track 12
Filename E:\1111\Bortnyansky.Silver_Album-Barocco,Igor_Popkov\12 - Allegro Maestoso.wav
Peak level 100.0 %
Track quality 100.0 %
Test CRC BFB14EAE
Copy CRC BFB14EAE
Track not present in AccurateRip database
Copy OK
Track 13
Filename E:\1111\Bortnyansky.Silver_Album-Barocco,Igor_Popkov\13 - Largetto.wav
Peak level 52.4 %
Track quality 100.0 %
Test CRC ADA9E043
Copy CRC ADA9E043
Track not present in AccurateRip database
Copy OK
Track 14
Filename E:\1111\Bortnyansky.Silver_Album-Barocco,Igor_Popkov\14 - Allegretto.wav
Peak level 70.9 %
Track quality 99.9 %
Test CRC 8A0BA558
Copy CRC 8A0BA558
Track not present in AccurateRip database
Copy OK
None of the tracks are present in the AccurateRip database
No errors occurred
End of status report

Содержание индексной карты (.CUE)

REM GENRE Classical
REM DATE 1996
REM DISCID DB0CE70E
REM COMMENT "ExactAudioCopy v0.99pb5"
PERFORMER "Barocco"
TITLE "Dmitri Bortnyansky"
FILE "01 - Allegro Spiritoso.wav" WAVE
TRACK 01 AUDIO
TITLE "Allegro Spiritoso"
PERFORMER "Barocco"
PREGAP 00:00:30
INDEX 01 00:00:00
FILE "02 - Hymn To The Moon.wav" WAVE
TRACK 02 AUDIO
TITLE "Hymn To The Moon"
PERFORMER "Barocco"
INDEX 01 00:00:00
FILE "03 - About Pola And Virginia.wav" WAVE
TRACK 03 AUDIO
TITLE "About Pola And Virginia"
PERFORMER "Barocco"
INDEX 01 00:00:00
FILE "04 - Poor Cowboy.wav" WAVE
TRACK 04 AUDIO
TITLE "Poor Cowboy"
PERFORMER "Barocco"
INDEX 01 00:00:00
FILE "05 - Ismena Believes And Stays True.wav" WAVE
TRACK 05 AUDIO
TITLE "Ismena Believes And Stays True"
PERFORMER "Barocco"
INDEX 01 00:00:00
FILE "06 - Cupid With Wings.wav" WAVE
TRACK 06 AUDIO
TITLE "Cupid With Wings"
PERFORMER "Barocco"
INDEX 01 00:00:00
FILE "07 - About Flowers.wav" WAVE
TRACK 07 AUDIO
TITLE "About Flowers"
PERFORMER "Barocco"
INDEX 01 00:00:00
FILE "08 - About Beautiful Ghirsis.wav" WAVE
TRACK 08 AUDIO
TITLE "About Beautiful Ghirsis"
PERFORMER "Barocco"
INDEX 01 00:00:00
FILE "09 - Good-Bye, Good-Bye.wav" WAVE
TRACK 09 AUDIO
TITLE "Good-Bye, Good-Bye"
PERFORMER "Barocco"
INDEX 01 00:00:00
FILE "10 - Leonora'S Aria.wav" WAVE
TRACK 10 AUDIO
TITLE "Leonora'S Aria"
PERFORMER "Barocco"
INDEX 01 00:00:00
FILE "11 - Babetta'S Aria.wav" WAVE
TRACK 11 AUDIO
TITLE "Babetta'S Aria"
PERFORMER "Barocco"
INDEX 01 00:00:00
FILE "12 - Allegro Maestoso.wav" WAVE
TRACK 12 AUDIO
TITLE "Allegro Maestoso"
PERFORMER "Barocco"
INDEX 01 00:00:00
FILE "13 - Largetto.wav" WAVE
TRACK 13 AUDIO
TITLE "Largetto"
PERFORMER "Barocco"
INDEX 01 00:00:00
FILE "14 - Allegretto.wav" WAVE
TRACK 14 AUDIO
TITLE "Allegretto"
PERFORMER "Barocco"
INDEX 01 00:00:00
Доп. информация: Это второй диск ансамбля (Бортнянский), первый находится здесь: http://teatrix.ru/viewtopic.php?t=1246119



Показать сообщения:    

Текущее время: 06-Дек 13:15

Часовой пояс: UTC + 3


Вы не можете начинать темы
Вы не можете отвечать на сообщения
Вы не можете редактировать свои сообщения
Вы не можете удалять свои сообщения
Вы не можете голосовать в опросах
Вы не можете прикреплять файлы к сообщениям
Вы не можете скачивать файлы