Собака на сене / Собака на сіні (Виктор Кошель) [2014 г., Украина, лирическая комедия, WEB-DLRip] Классический Художественный Альтернативный театр г. Киев


 

[Цитировать]

Собака на сене / Собака на сіні (2 части) Название театра: Классический Художественный Альтернативный театр г. Киев.
Год выпуска: 2014.
Страна: Украина .
Жанр: лирическая комедия в испанском стиле.
Продолжительность: 00:50:39 + 00:50:18 (01:40:57).
Режиссер: заслуженный артист Украины Виктор Кошель.
Действующие лица и исполнители:
Диана де Бель Флёр - Катарина Синчилло,
Теодоро - заслуженный артист Украины Виктор Кошель,
Анарда - Ирина Бенюк,
Марсела - Вероника Ярцева,
Маркиз Рикардо - Тимур Ибраимов,
Граф Федерико - заслуженный артист Украины Виктор Кошель,
Граф Лудовико - Тимур Ибраимов.
О спектакле:
«Собака на сене» в театре КХАТ - это настоящая сенсация в театральной жизни Киева. Это лирическая комедия в испанском стиле. Это яркий спектакль - праздник с фехтованием, игрой на гитаре, танцами и перевоплощениями, которым его создатели утверждают, «что ни в величии наслажденье, а в том, чтобы Душа могла осуществить свою Надежду».
Дополнительная информация:
Выпущено: Всемирная служба "Украинское телевидение и радиовещание", ГТРК "Культура".
Автор: Лопе де Вега.
Режиссер-постановщик и сценическое фехтование: заслуженный артист Украины Виктор Кошель.
Звук и свет: Наталья Даниленко.
Художественный руководитель театра: Катарина Синчилло.

О спектакле.
Релиз
Рип sharky.

Качество видео:...WEB-DLRip
Формат:.................AVI
Видео:..704x528 (1.33:1), 25 fps, DivX Codec 4.x ~1781 kbps avg, 0.19 bit/pixel
Аудио:..44.100 kHz, MPEG Layer 3, 2 ch, ~128.00 kbps avg

Отчет MI

1-я часть
Общее
Полное имя : Sobaka.na.sene_KHAT.Kiev.(2.chasti.iz.2) .2014.DivX.WEB-DLRip.fenixclub\Sobaka.na.sene_KHAT.Kiev.(1-ya.chast'.iz.2) .2014.DivX.WEB-DLRip.avi
Format : AVI
Format/Info : Audio Video Interleave
File size : 695 MiB
Duration : 50mn 39s
Overall bit rate : 1 918 Kbps
Video
ID : 0
Format : MPEG-4 Visual
Format settings, BVOP : 1
Format settings, QPel : No
Format settings, GMC : No warppoints
Format settings, Matrix : Default (H.263)
Muxing mode : Packed bitstream
Codec ID : DX50
Codec ID/Hint : DivX 5
Duration : 50mn 39s
Bit rate : 1 780 Kbps
Width : 704 pixels
Height : 528 pixels
Display aspect ratio : 4:3
Frame rate : 25.000 fps
Color space : YUV
Chroma subsampling : 4:2:0
Bit depth : 8 bits
Scan type : Progressive
Compression mode : Lossy
Bits/(Pixel*Frame) : 0.192
Stream size : 645 MiB (93%)
Title : Video
Writing library : DivX 3013
Audio
ID : 1
Format : MPEG Audio
Format version : Version 1
Format profile : Layer 3
Codec ID : 55
Codec ID/Hint : MP3
Duration : 50mn 39s
Bit rate mode : Constant
Bit rate : 128 Kbps
Channel(s) : 2 channels
Sampling rate : 44.1 KHz
Compression mode : Lossy
Stream size : 46.4 MiB (7%)
Alignment : Split accross interleaves
Interleave, duration : 40 ms (1.00 video frame)
Interleave, preload duration : 500 ms
Title : Audio
2-я часть
Общее
Полное имя : Sobaka.na.sene_KHAT.Kiev.(2.chasti.iz.2) .2014.DivX.WEB-DLRip.fenixclub\Sobaka.na.sene_KHAT.Kiev.(2-ya.chast'.iz.2) .2014.DivX.WEB-DLRip.avi
Format : AVI
Format/Info : Audio Video Interleave
File size : 690 MiB
Duration : 50mn 18s
Overall bit rate : 1 919 Kbps
Video
ID : 0
Format : MPEG-4 Visual
Format settings, BVOP : 1
Format settings, QPel : No
Format settings, GMC : No warppoints
Format settings, Matrix : Default (H.263)
Muxing mode : Packed bitstream
Codec ID : DX50
Codec ID/Hint : DivX 5
Duration : 50mn 18s
Bit rate : 1 781 Kbps
Width : 704 pixels
Height : 528 pixels
Display aspect ratio : 4:3
Frame rate : 25.000 fps
Color space : YUV
Chroma subsampling : 4:2:0
Bit depth : 8 bits
Scan type : Progressive
Compression mode : Lossy
Bits/(Pixel*Frame) : 0.192
Stream size : 641 MiB (93%)
Title : Video
Writing library : DivX 3013
Audio
ID : 1
Format : MPEG Audio
Format version : Version 1
Format profile : Layer 3
Codec ID : 55
Codec ID/Hint : MP3
Duration : 50mn 18s
Bit rate mode : Constant
Bit rate : 128 Kbps
Channel(s) : 2 channels
Sampling rate : 44.1 KHz
Compression mode : Lossy
Stream size : 46.1 MiB (7%)
Alignment : Split accross interleaves
Interleave, duration : 40 ms (1.00 video frame)
Interleave, preload duration : 500 ms
Title : Audio

Скриншоты


Альтернативный хост





Показать сообщения:    

Текущее время: 02-Дек 21:11

Часовой пояс: UTC + 3


Вы не можете начинать темы
Вы не можете отвечать на сообщения
Вы не можете редактировать свои сообщения
Вы не можете удалять свои сообщения
Вы не можете голосовать в опросах
Вы не можете прикреплять файлы к сообщениям
Вы не можете скачивать файлы