(Classical) Heinrich Schütz (Schuetz, Schutz) - Weihnachtshistorie SWV 435 (Windsbacher Knabenchor, H. Thamm), Lobet den Herrn SWV 350 (Willcocks), Danket dem Herrn SWV 45 (Chiaroscuro), Magnficat SWV 494 (Hilliard Ensemble) - 1996, FLAC


Статистика раздачи [Обновить пиров]
Размер:  340 MB   |    Зарегистрирован:  8 месяцев 15 дней   |    Скачан:  1 раз

Полного источника не было: 10 часов

Личеров:  3  [  0 KB/s  ]   Подробная статистика пиров
 
   
 
 
 

[Цитировать]

Heirich Schütz - Weihnachtshistorie SWV 435 (Windsbacher Knabenchor, H. Thamm), Lobet den Herrn in seinem Heiligtum SWV 350 (Willcocks), Danket dem Herrn, den er ist freundlich SWV 45 (Chiaroscuro), Deutsches Magnficat SWV 494 (Hilliard Ensemble)
Жанр: Classical
Страна-производитель диска: Netherlands
Год издания диска: 1996
Издатель (лейбл): EMI (исходно VEB Deutsche Schallplatten и др.)
Номер по каталогу: 7243 5 65736 2 8
Дата записи: 1963-1985
Аудиокодек: FLAC
Тип рипа: tracks+.cue
Битрейт аудио: lossless
Продолжительность: 1:04:37
Источник: собственный рип
Наличие сканов в содержимом раздачи: да
Треклист (с исполнителями):

Motets SWV 350 and 45; Deutsches Magnificat SWV 494; Weihnachtshistorie SWV 435a

[01] Lobet den Herrn in seinem Heiligentum (published 1974) 9.26
Motet/Motett, SWV 350
Cambridge University Musical Society • Bach Choir King's College Choir, Cambridge • Wilbraham Brass Soloists
Conducted by/Dirigent/direction David Willcocks
[02] Danket dem Herren, denn er ist freundlich (published 1980) 9.18
Psalm/Psaume 136, SWV 45
Chiaroscuro • Knabenkantorei Basel
Chorus Master/Chorleitung/Chef des choeurs: Markus Ulbrich
Ein Instrumentalensemble der Schola Cantorum Basiliensis conducted by/Dirigent/direction Hans-Martin Linde
[03] Meine Seele erhebet den Herren (published 1985) 7.46
Deutsches Magnificat, SWV 494
Hilliard Ensemble • London Baroque
Hannover Knabenchor conducted by/Dirigent/direction Heinz Hennig
[04]-[22]Historia der Geburt Jesu Christi SWV 435a (published 1969)
[04] Introduktion oder Eingang 1.35
[05] Es begab sich aber zu derselbigen Zeit 2.58
[06] Intermedium 1: Des Engel zu den Hirten auf dem Felde 2.58
[07] Und alsbald war da bei dem Engel 0.16
[08] Intermedium 2: Die Menge der Engel 2.20
[09] Und da die Engel von ihnen gen Himmel 0.14
[10] Intermedium 3: Die Hirten auf dem Felde 1.32
[11] Und sie kamen eilend 2.49
[12] Intermedium 4: Die Weiser aus dem Morgenlande 2.20
[13] Da das der König Herodes hörete 0.39
[14] Intermedium 5: Hohepriester und Schriftgelehrete 2.56
[15] Da berief Herodes 0.31
[16] Intermedium 6: Herodes 2.27
[17] Als sie nun den König gehöret hatten 2.18
[18] Intermedium 7: Der Engel 1.45
[19] Und er stund auf 3.29
[20] Intermedium 8: Der Engel zu Joseph 1.43
[21] Und er stund auf 2.06
[22] Beschluß: Der Geburt unseres Herrn und Seligmachers Jesu Christi 2.44
Edith Mathis soprano/Sopran • Georg Jelden Tenor/tenor • Claus Ocker bass/Baß/basse Der Windsbacher Knabenchor und ein Instrumentalensemble conducted by/Dirigent/direction Hans Thamm

Данный сборник Шютца интересен главным образом записью "Рождественской оратории" (Weihnachtshistorie), вышедшей в ГДР-овской серии, начатой с Дрезденским Кройцхором великим Рудольфом Мауэрсбергером (см. эту раздачу). В записи не принимает участие ни сам Мауэрсбергер, ни Дрезденский Кройцхор, однако она по праву входит в эту серию: произведение исполняет Виндсбахский хор мальчиков (Windsbacher Knabenchor), основатель, дирижер и хормейстер которого, Ханс Тамм (Hans Thamm), является учеником Рудольфа Мауэрсбергера и сам много лет сначала пел сопрано в Кройцхоре, а затем преподавал там наряду с учителем. Отличие от записей Флемига и Мауэрсбергера здесь в том, что на этой записи партии сопрано отданы не мальчикам-хористам, а женскому голосу - видимо, Тамм не располагал солистами-мальчиками нужного технического уровня (это и в настоящее время обычная практика при записях Шютца и аналогичной музыки, исключение опять же составляет Дрезденский хор).
В интернете распространено мнение, что эту ГДРовскую пластинку не переиздавали на CD, однако она вопроизводится на этом редком диске. Обложка самого CD, однако, страшней германской войны, поэтому здесь я даю оригинальную обложку ГДРовской пластинки, гравюру Дюрера "Рождество" (Weynachten, 1504, хранится в Staatliche Museen, Berlin). Обложка CD помещена среди сканов - это первая страница буклета. В раздачу включены тексты исполняемых произведений (на немецком).

Исполнители:
[01] Cambridge University Musical Society • Bach Choir King's College Choir, Cambridge • Wilbraham Brass Soloists
Conducted by/Dirigent/direction David Willcocks
[02] Chiaroscuro • Knabenkantorei Basel
Chorus Master/Chorleitung/Chef des choeurs: Markus Ulbrich
Ein Instrumentalensemble der Schola Cantorum Basiliensis conducted by/Dirigent/direction Hans-Martin Linde
[03] Hilliard Ensemble • London Baroque
Hannover Knabenchor conducted by/Dirigent/direction Heinz Hennig
[04]-[22] Edith Mathis soprano/Sopran • Georg Jelden Tenor/tenor • Claus Ocker bass/Baß/basse
Der Windsbacher Knabenchor und ein Instrumentalensemble conducted by/Dirigent/direction Hans Thamm

Лог создания рипа

Exact Audio Copy V1.0 beta 3 from 29. August 2011
Отчёт EAC об извлечении, выполненном 18. декабря 2014, 17:48
Heinrich Schuetz / Windsbacher Knabenchor / Weihnachtshistorie SWV 435a and SWV 45, 494, 350
Дисковод: MATSHITABD-MLT UJ240ES Adapter: 2 ID: 0
Режим чтения : Достоверность
Использование точного потока : Да
Отключение кэша аудио : Да
Использование указателей C2 : Нет
Коррекция смещения при чтении : 103
Способность читать области Lead-in и Lead-out : Нет
Заполнение пропущенных сэмплов тишиной : Да
Удаление блоков с тишиной в начале и конце : Нет
При вычислениях CRC использовались нулевые сэмплы : Да
Интерфейс : Встроенный Win32-интерфейс для Win NT/2000
Обработка зазоров : Добавлено к предыдущему треку
Выходной формат : Пользовательский кодировщик
Выбранный битрейт : 1024 kBit/s
Качество : Высокий
Добавление ID3-тега : Нет
Утилита сжатия : C:\Program Files (x86)\Exact Audio Copy\Flac\flac.exe
Дополнительные параметры : -V -8 -T "Genre=%genre%" -T "Artist=%artist%" -T "Title=%title%" -T "Album=%albumtitle%" -T "Date=%year%" -T "Tracknumber=%tracknr%" -T "Comment=%comment%" %source%
TOC извлечённого CD
Трек | Старт | Длительность | Начальный сектор | Конечный сектор
---------------------------------------------------------------------
1 | 0:00.32 | 9:33.13 | 32 | 43019
2 | 9:33.45 | 9:25.27 | 43020 | 85421
3 | 18:58.72 | 7:52.40 | 85422 | 120861
4 | 26:51.37 | 1:35.28 | 120862 | 128014
5 | 28:26.65 | 2:58.40 | 128015 | 141404
6 | 31:25.30 | 2:58.42 | 141405 | 154796
7 | 34:23.72 | 0:16.05 | 154797 | 156001
8 | 34:40.02 | 2:20.25 | 156002 | 166526
9 | 37:00.27 | 0:14.25 | 166527 | 167601
10 | 37:14.52 | 1:32.58 | 167602 | 174559
11 | 38:47.35 | 2:49.22 | 174560 | 187256
12 | 41:36.57 | 2:19.65 | 187257 | 197746
13 | 43:56.47 | 0:39.40 | 197747 | 200711
14 | 44:36.12 | 2:56.00 | 200712 | 213911
15 | 47:32.12 | 0:31.60 | 213912 | 216296
16 | 48:03.72 | 2:27.00 | 216297 | 227321
17 | 50:30.72 | 2:18.03 | 227322 | 237674
18 | 52:49.00 | 1:45.40 | 237675 | 245589
19 | 54:34.40 | 3:29.27 | 245590 | 261291
20 | 58:03.67 | 1:43.45 | 261292 | 269061
21 | 59:47.37 | 2:06.25 | 269062 | 278536
22 | 61:53.62 | 2:43.73 | 278537 | 290834
Трек 1
Имя файла C:\Users\Nornore\Documents\EAC rips\Schutz Weihnachtshistorie Thamm\01.Heinrich Schuetz , King's College Choir, conductor David Willcocks - Lobet den Herrn in seinem Heiligtum, motet SWV 350.wav
Длина предзазора 0:00:02.32
Пиковый уровень 82.6 %
Скорость извлечения 3.0 X
Качество трека 100.0 %
CRC теста 52F0387D
CRC копии 52F0387D
Точность не определена (достоверность 1) [14F5F7F6], AccurateRip вернул [62764727] (AR v2)
Копирование... OK
Трек 2
Имя файла C:\Users\Nornore\Documents\EAC rips\Schutz Weihnachtshistorie Thamm\02.Heinrich Schuetz , Knabenkantorei Basel, conductor Hans-Martin Linde - Danket dem Herren, Psalm SWV 45.wav
Длина предзазора 0:00:06.35
Пиковый уровень 89.9 %
Скорость извлечения 3.4 X
Качество трека 99.9 %
CRC теста AB303E73
CRC копии AB303E73
Точность не определена (достоверность 1) [E52D6F2D], AccurateRip вернул [5724A9AE] (AR v2)
Копирование... OK
Трек 3
Имя файла C:\Users\Nornore\Documents\EAC rips\Schutz Weihnachtshistorie Thamm\03.Heinrich Schuetz , Hilliard Ensemble, Hannover Knabenchor, conductor Heinz Henning - Meine Seele erhebet den Herren, Magnificat SWV 494.wav
Длина предзазора 0:00:07.37
Пиковый уровень 78.0 %
Скорость извлечения 4.0 X
Качество трека 100.0 %
CRC теста AF0BE521
CRC копии AF0BE521
Точность не определена (достоверность 1) [F1B39B23], AccurateRip вернул [8562C393] (AR v2)
Копирование... OK
Трек 4
Имя файла C:\Users\Nornore\Documents\EAC rips\Schutz Weihnachtshistorie Thamm\04.Heinrich Schuetz , Windsbacher Knabenchor - Historia der Geburt Jesu Christi, SWV 435a-Introduktion oder Eingang.wav
Длина предзазора 0:00:06.35
Пиковый уровень 61.4 %
Скорость извлечения 3.3 X
Качество трека 100.0 %
CRC теста 4852E971
CRC копии 4852E971
Точность не определена (достоверность 1) [723B52AB], AccurateRip вернул [3D211171] (AR v2)
Копирование... OK
Трек 5
Имя файла C:\Users\Nornore\Documents\EAC rips\Schutz Weihnachtshistorie Thamm\05.Heinrich Schuetz , Windsbacher Knabenchor - Historia der Geburt Jesu Christi, SWV 435a-Es begab sich aber zu derselbigen Zeit.wav
Длина предзазора 0:00:00.03
Пиковый уровень 44.7 %
Скорость извлечения 3.9 X
Качество трека 100.0 %
CRC теста 360417E0
CRC копии 360417E0
Точность не определена (достоверность 1) [81FA40A9], AccurateRip вернул [06064851] (AR v2)
Копирование... OK
Трек 6
Имя файла C:\Users\Nornore\Documents\EAC rips\Schutz Weihnachtshistorie Thamm\06.Heinrich Schuetz , Windsbacher Knabenchor - Historia der Geburt Jesu Christi, SWV 435a-Intermedium 1 - Des Engel zu den Hirten auf dem Felde.wav
Длина предзазора 0:00:00.03
Пиковый уровень 68.9 %
Скорость извлечения 4.0 X
Качество трека 100.0 %
CRC теста 86152B7D
CRC копии 86152B7D
Точность не определена (достоверность 1) [09FF8549], AccurateRip вернул [1CFF9E9A] (AR v2)
Копирование... OK
Трек 7
Имя файла C:\Users\Nornore\Documents\EAC rips\Schutz Weihnachtshistorie Thamm\07.Heinrich Schuetz , Windsbacher Knabenchor - Historia der Geburt Jesu Christi, SWV 435a-Und alsbald war da bei dem Engel.wav
Длина предзазора 0:00:00.02
Пиковый уровень 36.7 %
Скорость извлечения 1.4 X
Качество трека 100.0 %
CRC теста 12BCA860
CRC копии 12BCA860
Точность не определена (достоверность 1) [BB24F77E], AccurateRip вернул [56DC5606] (AR v2)
Копирование... OK
Трек 8
Имя файла C:\Users\Nornore\Documents\EAC rips\Schutz Weihnachtshistorie Thamm\08.Heinrich Schuetz , Windsbacher Knabenchor - Historia der Geburt Jesu Christi, SWV 435a-Intermedium 2 - Die Menge der Engel.wav
Длина предзазора 0:00:00.02
Пиковый уровень 88.4 %
Скорость извлечения 3.9 X
Качество трека 100.0 %
CRC теста 10612A37
CRC копии 10612A37
Точность не определена (достоверность 1) [7097C8B7], AccurateRip вернул [39E68C97] (AR v2)
Копирование... OK
Трек 9
Имя файла C:\Users\Nornore\Documents\EAC rips\Schutz Weihnachtshistorie Thamm\09.Heinrich Schuetz , Windsbacher Knabenchor - Historia der Geburt Jesu Christi, SWV 435a-Und da die Engel von ihnen gen Himmel.wav
Длина предзазора 0:00:00.02
Пиковый уровень 52.2 %
Скорость извлечения 1.3 X
Качество трека 100.0 %
CRC теста B26A32AD
CRC копии B26A32AD
Точность не определена (достоверность 1) [DD600D4A], AccurateRip вернул [A3F65959] (AR v2)
Копирование... OK
Трек 10
Имя файла C:\Users\Nornore\Documents\EAC rips\Schutz Weihnachtshistorie Thamm\10.Heinrich Schuetz , Windsbacher Knabenchor - Historia der Geburt Jesu Christi, SWV 435a-Intermedium 3 - Die Hirten auf dem Felde.wav
Длина предзазора 0:00:00.02
Пиковый уровень 37.9 %
Скорость извлечения 3.7 X
Качество трека 100.0 %
CRC теста C71DE7C4
CRC копии C71DE7C4
Точность не определена (достоверность 1) [42DBD58C], AccurateRip вернул [EFA64253] (AR v2)
Копирование... OK
Трек 11
Имя файла C:\Users\Nornore\Documents\EAC rips\Schutz Weihnachtshistorie Thamm\11.Heinrich Schuetz , Windsbacher Knabenchor - Historia der Geburt Jesu Christi, SWV 435a-Und sie kamen eilend.wav
Длина предзазора 0:00:00.03
Пиковый уровень 42.1 %
Скорость извлечения 3.6 X
Качество трека 99.9 %
CRC теста 3BB6392F
CRC копии 3BB6392F
Точность не определена (достоверность 1) [31ECB98E], AccurateRip вернул [CC67E3D3] (AR v2)
Копирование... OK
Трек 12
Имя файла C:\Users\Nornore\Documents\EAC rips\Schutz Weihnachtshistorie Thamm\12.Heinrich Schuetz , Windsbacher Knabenchor - Historia der Geburt Jesu Christi, SWV 435a-Intermedium 4 - Die Weiser aus dem Morgenlande.wav
Длина предзазора 0:00:00.02
Пиковый уровень 55.7 %
Скорость извлечения 4.1 X
Качество трека 100.0 %
CRC теста 9313A94A
CRC копии 9313A94A
Точность не определена (достоверность 1) [8699485B], AccurateRip вернул [61B4CE57] (AR v2)
Копирование... OK
Трек 13
Имя файла C:\Users\Nornore\Documents\EAC rips\Schutz Weihnachtshistorie Thamm\13.Heinrich Schuetz , Windsbacher Knabenchor - Historia der Geburt Jesu Christi, SWV 435a-Da das Koenig Herod hoerete.wav
Длина предзазора 0:00:00.02
Пиковый уровень 70.8 %
Скорость извлечения 1.9 X
Качество трека 99.7 %
CRC теста FEEA50E9
CRC копии FEEA50E9
Точность не определена (достоверность 1) [E50ABF20], AccurateRip вернул [F93E1671] (AR v2)
Копирование... OK
Трек 14
Имя файла C:\Users\Nornore\Documents\EAC rips\Schutz Weihnachtshistorie Thamm\14.Heinrich Schuetz , Windsbacher Knabenchor - Historia der Geburt Jesu Christi, SWV 435a-Intermedium 5 - Hohepriester und Schiftgelehrete.wav
Длина предзазора 0:00:00.02
Пиковый уровень 57.6 %
Скорость извлечения 4.5 X
Качество трека 100.0 %
CRC теста 51941FD0
CRC копии 51941FD0
Точность не определена (достоверность 1) [7385A49A], AccurateRip вернул [8B6C823E] (AR v2)
Копирование... OK
Трек 15
Имя файла C:\Users\Nornore\Documents\EAC rips\Schutz Weihnachtshistorie Thamm\15.Heinrich Schuetz , Windsbacher Knabenchor - Historia der Geburt Jesu Christi, SWV 435a-Da berief Herodes.wav
Длина предзазора 0:00:00.02
Пиковый уровень 42.0 %
Скорость извлечения 2.5 X
Качество трека 100.0 %
CRC теста 46E3C1FA
CRC копии 46E3C1FA
Точность не определена (достоверность 1) [28D61A03], AccurateRip вернул [55CDE177] (AR v2)
Копирование... OK
Трек 16
Имя файла C:\Users\Nornore\Documents\EAC rips\Schutz Weihnachtshistorie Thamm\16.Heinrich Schuetz , Windsbacher Knabenchor - Historia der Geburt Jesu Christi, SWV 435a-Intermedium 6 - Herodes.wav
Длина предзазора 0:00:00.02
Пиковый уровень 62.6 %
Скорость извлечения 4.4 X
Качество трека 100.0 %
CRC теста A0456B6F
CRC копии A0456B6F
Точность не определена (достоверность 1) [234B4596], AccurateRip вернул [13A140C6] (AR v2)
Копирование... OK
Трек 17
Имя файла C:\Users\Nornore\Documents\EAC rips\Schutz Weihnachtshistorie Thamm\17.Heinrich Schuetz , Windsbacher Knabenchor - Historia der Geburt Jesu Christi, SWV 435a-Als sie nun den Koenig gehoeret hatten.wav
Длина предзазора 0:00:00.02
Пиковый уровень 45.3 %
Скорость извлечения 4.5 X
Качество трека 100.0 %
CRC теста 6B5A2E35
CRC копии 6B5A2E35
Точность не определена (достоверность 1) [ECFFAC48], AccurateRip вернул [5A8E244C] (AR v2)
Копирование... OK
Трек 18
Имя файла C:\Users\Nornore\Documents\EAC rips\Schutz Weihnachtshistorie Thamm\18.Heinrich Schuetz , Windsbacher Knabenchor - Historia der Geburt Jesu Christi, SWV 435a-Intermedium 7 - Der Engel.wav
Длина предзазора 0:00:00.03
Пиковый уровень 54.3 %
Скорость извлечения 4.2 X
Качество трека 100.0 %
CRC теста 0A4D33C7
CRC копии 0A4D33C7
Точность не определена (достоверность 1) [04B996AF], AccurateRip вернул [586340BF] (AR v2)
Копирование... OK
Трек 19
Имя файла C:\Users\Nornore\Documents\EAC rips\Schutz Weihnachtshistorie Thamm\19.Heinrich Schuetz , Windsbacher Knabenchor - Historia der Geburt Jesu Christi, SWV 435a-Und er stund auf.wav
Длина предзазора 0:00:00.03
Пиковый уровень 57.4 %
Скорость извлечения 4.9 X
Качество трека 100.0 %
CRC теста E0EAAB52
CRC копии E0EAAB52
Точность не определена (достоверность 1) [B4677A1F], AccurateRip вернул [E6287ADC] (AR v2)
Копирование... OK
Трек 20
Имя файла C:\Users\Nornore\Documents\EAC rips\Schutz Weihnachtshistorie Thamm\20.Heinrich Schuetz , Windsbacher Knabenchor - Historia der Geburt Jesu Christi, SWV 435a-Intermedium 8 - Der Engel zu Joseph.wav
Длина предзазора 0:00:00.02
Пиковый уровень 46.5 %
Скорость извлечения 3.4 X
Качество трека 99.8 %
CRC теста 907C7735
CRC копии 907C7735
Точность не определена (достоверность 1) [642151E6], AccurateRip вернул [B7683660] (AR v2)
Копирование... OK
Трек 21
Имя файла C:\Users\Nornore\Documents\EAC rips\Schutz Weihnachtshistorie Thamm\21.Heinrich Schuetz , Windsbacher Knabenchor - Historia der Geburt Jesu Christi, SWV 435a-Und er stund auf.wav
Длина предзазора 0:00:00.02
Пиковый уровень 54.3 %
Скорость извлечения 4.7 X
Качество трека 100.0 %
CRC теста 6B5EE353
CRC копии 6B5EE353
Точность не определена (достоверность 1) [D4F65BF9], AccurateRip вернул [B1234F8F] (AR v2)
Копирование... OK
Трек 22
Имя файла C:\Users\Nornore\Documents\EAC rips\Schutz Weihnachtshistorie Thamm\22.Heinrich Schuetz , Windsbacher Knabenchor - Historia der Geburt Jesu Christi, SWV 435a-Beschluss- Det Geburt unseres Herrn und Seligmachers Jesu Christi.wav
Длина предзазора 0:00:00.02
Пиковый уровень 64.3 %
Скорость извлечения 4.9 X
Качество трека 100.0 %
CRC теста 84C0B7E2
CRC копии 84C0B7E2
Точность не определена (достоверность 1) [8AC7E33D], AccurateRip вернул [88F5EBFB] (AR v2)
Копирование... OK
Ни один трек не прошёл проверки на точность
В вашей базе может быть иной вариант штамповки диска
Ошибок не произошло
Конец отчёта
==== Контрольная сумма отчёта 6C7113E8AC125303488C883F98B632F3BD107454F45246921305E3C9464D8082 ====

Содержание индексной карты (.CUE)

REM GENRE Classical
REM DATE 1963
REM DISCID 590F2516
REM COMMENT "ExactAudioCopy v1.0b3"
CATALOG 0724356553628
PERFORMER "Heinrich Schuetz / Windsbacher Knabenchor"
TITLE "Weihnachtshistorie SWV 435a and SWV 45, 494, 350"
FILE "01.Heinrich Schuetz , King's College Choir, conductor David Willcocks - Lobet den Herrn in seinem Heiligtum, motet SWV 350.wav" WAVE
TRACK 01 AUDIO
TITLE "Lobet den Herrn in seinem Heiligtum, motet SWV 350"
PERFORMER "Heinrich Schuetz / King's College Choir, conductor David Willcocks"
PREGAP 00:00:32
INDEX 01 00:00:00
TRACK 02 AUDIO
TITLE "Danket dem Herren, Psalm SWV 45"
PERFORMER "Heinrich Schuetz / Knabenkantorei Basel, conductor Hans-Martin Linde"
INDEX 00 09:26:53
FILE "02.Heinrich Schuetz , Knabenkantorei Basel, conductor Hans-Martin Linde - Danket dem Herren, Psalm SWV 45.wav" WAVE
INDEX 01 00:00:00
TRACK 03 AUDIO
TITLE "Meine Seele erhebet den Herren, Magnificat SWV 494"
PERFORMER "Heinrich Schuetz / Hilliard Ensemble, Hannover Knabenchor, conductor Heinz H..."
INDEX 00 09:17:65
FILE "03.Heinrich Schuetz , Hilliard Ensemble, Hannover Knabenchor, conductor Heinz Henning - Meine Seele erhebet den Herren, Magnificat SWV 494.wav" WAVE
INDEX 01 00:00:00
TRACK 04 AUDIO
TITLE "Historia der Geburt Jesu Christi, SWV 435a-Introduktion oder Eingang"
PERFORMER "Heinrich Schuetz / Windsbacher Knabenchor"
INDEX 00 07:46:05
FILE "04.Heinrich Schuetz , Windsbacher Knabenchor - Historia der Geburt Jesu Christi, SWV 435a-Introduktion oder Eingang.wav" WAVE
INDEX 01 00:00:00
TRACK 05 AUDIO
TITLE "Historia der Geburt Jesu Christi, SWV 435a-Es begab sich aber zu derselbigen ..."
PERFORMER "Heinrich Schuetz / Windsbacher Knabenchor"
INDEX 00 01:35:25
FILE "05.Heinrich Schuetz , Windsbacher Knabenchor - Historia der Geburt Jesu Christi, SWV 435a-Es begab sich aber zu derselbigen Zeit.wav" WAVE
INDEX 01 00:00:00
TRACK 06 AUDIO
TITLE "Historia der Geburt Jesu Christi, SWV 435a-Intermedium 1 - Des Engel zu den H..."
PERFORMER "Heinrich Schuetz / Windsbacher Knabenchor"
INDEX 00 02:58:37
FILE "06.Heinrich Schuetz , Windsbacher Knabenchor - Historia der Geburt Jesu Christi, SWV 435a-Intermedium 1 - Des Engel zu den Hirten auf dem Felde.wav" WAVE
INDEX 01 00:00:00
TRACK 07 AUDIO
TITLE "Historia der Geburt Jesu Christi, SWV 435a-Und alsbald war da bei dem Engel"
PERFORMER "Heinrich Schuetz / Windsbacher Knabenchor"
INDEX 00 02:58:40
FILE "07.Heinrich Schuetz , Windsbacher Knabenchor - Historia der Geburt Jesu Christi, SWV 435a-Und alsbald war da bei dem Engel.wav" WAVE
INDEX 01 00:00:00
TRACK 08 AUDIO
TITLE "Historia der Geburt Jesu Christi, SWV 435a-Intermedium 2 - Die Menge der Engel"
PERFORMER "Heinrich Schuetz / Windsbacher Knabenchor"
INDEX 00 00:16:03
FILE "08.Heinrich Schuetz , Windsbacher Knabenchor - Historia der Geburt Jesu Christi, SWV 435a-Intermedium 2 - Die Menge der Engel.wav" WAVE
INDEX 01 00:00:00
TRACK 09 AUDIO
TITLE "Historia der Geburt Jesu Christi, SWV 435a-Und da die Engel von ihnen gen Himmel"
PERFORMER "Heinrich Schuetz / Windsbacher Knabenchor"
INDEX 00 02:20:23
FILE "09.Heinrich Schuetz , Windsbacher Knabenchor - Historia der Geburt Jesu Christi, SWV 435a-Und da die Engel von ihnen gen Himmel.wav" WAVE
INDEX 01 00:00:00
TRACK 10 AUDIO
TITLE "Historia der Geburt Jesu Christi, SWV 435a-Intermedium 3 - Die Hirten auf dem..."
PERFORMER "Heinrich Schuetz / Windsbacher Knabenchor"
INDEX 00 00:14:23
FILE "10.Heinrich Schuetz , Windsbacher Knabenchor - Historia der Geburt Jesu Christi, SWV 435a-Intermedium 3 - Die Hirten auf dem Felde.wav" WAVE
INDEX 01 00:00:00
TRACK 11 AUDIO
TITLE "Historia der Geburt Jesu Christi, SWV 435a-Und sie kamen eilend"
PERFORMER "Heinrich Schuetz / Windsbacher Knabenchor"
INDEX 00 01:32:55
FILE "11.Heinrich Schuetz , Windsbacher Knabenchor - Historia der Geburt Jesu Christi, SWV 435a-Und sie kamen eilend.wav" WAVE
INDEX 01 00:00:00
TRACK 12 AUDIO
TITLE "Historia der Geburt Jesu Christi, SWV 435a-Intermedium 4 - Die Weiser aus dem..."
PERFORMER "Heinrich Schuetz / Windsbacher Knabenchor"
INDEX 00 02:49:20
FILE "12.Heinrich Schuetz , Windsbacher Knabenchor - Historia der Geburt Jesu Christi, SWV 435a-Intermedium 4 - Die Weiser aus dem Morgenlande.wav" WAVE
INDEX 01 00:00:00
TRACK 13 AUDIO
TITLE "Historia der Geburt Jesu Christi, SWV 435a-Da das Koenig Herod hoerete"
PERFORMER "Heinrich Schuetz / Windsbacher Knabenchor"
INDEX 00 02:19:63
FILE "13.Heinrich Schuetz , Windsbacher Knabenchor - Historia der Geburt Jesu Christi, SWV 435a-Da das Koenig Herod hoerete.wav" WAVE
INDEX 01 00:00:00
TRACK 14 AUDIO
TITLE "Historia der Geburt Jesu Christi, SWV 435a-Intermedium 5 - Hohepriester und S..."
PERFORMER "Heinrich Schuetz / Windsbacher Knabenchor"
INDEX 00 00:39:38
FILE "14.Heinrich Schuetz , Windsbacher Knabenchor - Historia der Geburt Jesu Christi, SWV 435a-Intermedium 5 - Hohepriester und Schiftgelehrete.wav" WAVE
INDEX 01 00:00:00
TRACK 15 AUDIO
TITLE "Historia der Geburt Jesu Christi, SWV 435a-Da berief Herodes"
PERFORMER "Heinrich Schuetz / Windsbacher Knabenchor"
INDEX 00 02:55:73
FILE "15.Heinrich Schuetz , Windsbacher Knabenchor - Historia der Geburt Jesu Christi, SWV 435a-Da berief Herodes.wav" WAVE
INDEX 01 00:00:00
TRACK 16 AUDIO
TITLE "Historia der Geburt Jesu Christi, SWV 435a-Intermedium 6 - Herodes"
PERFORMER "Heinrich Schuetz / Windsbacher Knabenchor"
INDEX 00 00:31:58
FILE "16.Heinrich Schuetz , Windsbacher Knabenchor - Historia der Geburt Jesu Christi, SWV 435a-Intermedium 6 - Herodes.wav" WAVE
INDEX 01 00:00:00
TRACK 17 AUDIO
TITLE "Historia der Geburt Jesu Christi, SWV 435a-Als sie nun den Koenig gehoeret ha..."
PERFORMER "Heinrich Schuetz / Windsbacher Knabenchor"
INDEX 00 02:26:73
FILE "17.Heinrich Schuetz , Windsbacher Knabenchor - Historia der Geburt Jesu Christi, SWV 435a-Als sie nun den Koenig gehoeret hatten.wav" WAVE
INDEX 01 00:00:00
TRACK 18 AUDIO
TITLE "Historia der Geburt Jesu Christi, SWV 435a-Intermedium 7 - Der Engel"
PERFORMER "Heinrich Schuetz / Windsbacher Knabenchor"
INDEX 00 02:18:00
FILE "18.Heinrich Schuetz , Windsbacher Knabenchor - Historia der Geburt Jesu Christi, SWV 435a-Intermedium 7 - Der Engel.wav" WAVE
INDEX 01 00:00:00
TRACK 19 AUDIO
TITLE "Historia der Geburt Jesu Christi, SWV 435a-Und er stund auf"
PERFORMER "Heinrich Schuetz / Windsbacher Knabenchor"
INDEX 00 01:45:37
FILE "19.Heinrich Schuetz , Windsbacher Knabenchor - Historia der Geburt Jesu Christi, SWV 435a-Und er stund auf.wav" WAVE
INDEX 01 00:00:00
TRACK 20 AUDIO
TITLE "Historia der Geburt Jesu Christi, SWV 435a-Intermedium 8 - Der Engel zu Joseph"
PERFORMER "Heinrich Schuetz / Windsbacher Knabenchor"
INDEX 00 03:29:25
FILE "20.Heinrich Schuetz , Windsbacher Knabenchor - Historia der Geburt Jesu Christi, SWV 435a-Intermedium 8 - Der Engel zu Joseph.wav" WAVE
INDEX 01 00:00:00
TRACK 21 AUDIO
TITLE "Historia der Geburt Jesu Christi, SWV 435a-Und er stund auf"
PERFORMER "Heinrich Schuetz / Windsbacher Knabenchor"
INDEX 00 01:43:43
FILE "21.Heinrich Schuetz , Windsbacher Knabenchor - Historia der Geburt Jesu Christi, SWV 435a-Und er stund auf.wav" WAVE
INDEX 01 00:00:00
TRACK 22 AUDIO
TITLE "Historia der Geburt Jesu Christi, SWV 435a-Beschluss: Det Geburt unseres Herr..."
PERFORMER "Heinrich Schuetz / Windsbacher Knabenchor"
INDEX 00 02:06:23
FILE "22.Heinrich Schuetz , Windsbacher Knabenchor - Historia der Geburt Jesu Christi, SWV 435a-Beschluss- Det Geburt unseres Herrn und Seligmachers Jesu Christi.wav" WAVE
INDEX 01 00:00:00
[teatrix.ru].t19927.torrent 
Торрент: Зарегистрирован [ 2016-03-19 00:32 ] · 3E2D44797A72DD139AF04E0F21786DFAA10AF9E2

Скачать .torrent

Скачать

18 KB

Статус: проверено
Скачан: 1 раз
Размер: 340 MB
terms.php



Быстрый ответ

Имя:

      
Для отправки сообщений необходимо включить JavaScript
Показать сообщения:    

Текущее время: 03-Дек 07:41

Часовой пояс: UTC + 3


Вы можете начинать темы
Вы можете отвечать на сообщения
Вы не можете редактировать свои сообщения
Вы не можете удалять свои сообщения
Вы не можете голосовать в опросах
Вы не можете прикреплять файлы к сообщениям
Вы можете скачивать файлы