(Classical) [LP] [24/48] Sviatoslav Richter - Piano:R.Shumann - Novelettes,Op. 21--48; F.Chopin - Preludes, Op. 28--20.20. - 1981, FLAC (tracks+.cue)


Статистика раздачи [Обновить пиров]
Размер:  399 MB   |    Зарегистрирован:  8 месяцев 20 дней   |    Скачан:  0 раз

Полного источника не было: Никогда

Личеров:  3  [  0 KB/s  ]   Подробная статистика пиров
 
   
 
 
 

[Цитировать]

Sviatoslav Richter - Piano:R.Shumann - Novelettes,Op. 21--48; F.Chopin - Preludes, Op.28--20.20
Жанр: Classical
Носитель: LP
Год выпуска: 1981
Лейбл: Melodya
Страна-производитель: USSR
Аудио кодек: FLAC
Тип рипа: tracks+.cue
Формат записи: 32/192
Формат раздачи: 24/48
Продолжительность: 41.28 min
Треклист:
Side one:
R.Shumann (1810-1856)
Novelettees, Op. 21--20.48
01. No.2 in D Major
02. No.4 in D Major
03. No.8 in F-sharp minor
Side two:
F.Chopin (19810-1849)
Preludes, Op. 21--20.48
No.4 In E monor. Largo;
No.5 in D Major. Allegro molto;
No.6 In B minor. Lento assai;
No.7 in A Major. Andantino;
No.8 In F-sharp minor. Molto agitato;
No.10 In C-sharp minor. Allegro molto;
No.13 In F-sharp Major. Lento;
No.19 in E-flat Major. Vivace;
No.2 in A Major. Lento;
No.23 in F Major. Moderato;
No.21 in B-flat Major. Cantabile
Источник оцифровки: автором раздачи
Код класса состояния винила: Ex
Устройство воспроизведения: Электроника ЭП 017С
Головка звукоснимателя: Audio-Technica AT95
Предварительный усилитель: Бриг-001
АЦП: VIA HD audio device
Программа-оцифровщик: Izotope RX 4 Advanced
Обработка: Manual

Спектр+АЧХ+Уровень записи

DR=14

foobar2000 1.1.10 / Dynamic Range Meter 1.1.1
log date: 2014-12-29 18:04:44
--------------------------------------------------------------------------------
Analyzed: Sviatoslav Richter / Piano
--------------------------------------------------------------------------------
DR Peak RMS Duration Track
--------------------------------------------------------------------------------
DR13 -2.20 dB -21.07 dB 5:54 ?-No.2 in D Major
DR13 -1.00 dB -19.23 dB 3:28 ?-No.4 in D Major
DR14 -0.78 dB -21.23 dB 11:32 ?-No.8 in F-sharp minor
DR18 -3.04 dB -27.73 dB 20:32 ?-Preludes, Op. 21--20.48
--------------------------------------------------------------------------------
Number of tracks: 4
Official DR value: DR14
Samplerate: 48000 Hz
Channels: 2
Bits per sample: 24
Bitrate: 1281 kbps
Codec: FLAC
================================================================================

Back & Disc

[teatrix.ru].t19928.torrent 
Торрент: Зарегистрирован [ 2016-03-19 00:32 ] · 1F542730B748B95F85CD09A8C2B0C3D609FF5722

Скачать .torrent

Скачать

17 KB

Статус: проверено
Скачан: 0 раз
Размер: 399 MB
terms.php



Быстрый ответ

Имя:

      
Для отправки сообщений необходимо включить JavaScript
Показать сообщения:    

Текущее время: 08-Дек 14:57

Часовой пояс: UTC + 3


Вы можете начинать темы
Вы можете отвечать на сообщения
Вы не можете редактировать свои сообщения
Вы не можете удалять свои сообщения
Вы не можете голосовать в опросах
Вы не можете прикреплять файлы к сообщениям
Вы можете скачивать файлы