Armand Amar - Pixel (Mourad Merzouki, Marjorie Hannoteaux) [2014, Modern dance, WEBRip]


 

[Цитировать]

Pixel
Год выпуска: 2014
Лейбл: Festival Kalypso
Страна-производитель: Франция
Жанр: Modern dance
Продолжительность: 01:15:52
Création musicale: Armand Amar
Исполнители музыки:
Violon, piano, musique additionnelle, alto : Sarah Nemtanu, Julien Carton, Anne-Sophie Versnaeyen
Enregistrement, mixage, création sonore: Vincent Joinville
Режиссер/Хореограф: Mourad Merzouki
Assistante du chorégraphe: Marjorie Hannoteaux
Исполнители:
Rémi Autechaud (dit R.M.S.), Kader Belmoktar, Marc Brillant, Élodie Chan, Aurélien Chareyron, Yvener Guillaume, Amélie Jousseaume, Ludovic Lacroix, Xuan Le, Steven Valade, Médésséganvi Yetongnon (dit Swing)
Описание:
«Pixel» fait évoluer les corps en mouvement dans un univers numérique changeant, jusqu'à rendre illusion et réalité indissociables.
Доп. информация: Filmé le 21.11.2014
Качество видео: WEBRip
Формат/Контейнер: MKV
Видео кодек: H.264
Аудио кодек: AC3
Видео поток: MPEG4 Video (H264) 1280x720 (643:360) 25.00fps 6682 Kbps
Аудио поток: Dolby AC3 48000Hz stereo 256 Kbps

Mediainfo

Format : Matroska
File size : 3.75 GiB
Duration : 1h 15mn
Overall bit rate : 7 079 Kbps
Encoded date : UTC 2014-12-24 20:03:56
Writing application : mkvmerge v2.4.2 ('Oh My God') built on Jan 18 2009 17:30:28
Writing library : libebml v0.7.7 + libmatroska v0.8.1
Video
ID : 1
Format : AVC
Format/Info : Advanced Video Codec
Format profile : High@L4.1
Format settings, CABAC : Yes
Format settings, ReFrames : 3 frames
Muxing mode : Container profile=Unknown@4.1
Codec ID : V_MPEG4/ISO/AVC
Duration : 1h 15mn
Bit rate : 6 682 Kbps
Nominal bit rate : 8 500 Kbps
Width : 1 280 pixels
Height : 720 pixels
Display aspect ratio : 16:9
Original display aspect ratio : 16:9
Frame rate mode : Variable
Frame rate : 25.000 fps
Color space : YUV
Chroma subsampling : 4:2:0
Bit depth : 8 bits
Scan type : Progressive
Bits/(Pixel*Frame) : 0.290
Stream size : 3.54 GiB (94%)
Writing library : x264 core 116 r2019M 9cc407d
Encoding settings : cabac=1 / ref=3 / deblock=1:0:0 / analyse=0x3:0x133 / me=hex / subme=7 / psy=1 / psy_rd=1.00:0.20 / mixed_ref=1 / me_range=16 / chroma_me=1 / trellis=1 / 8x8dct=1 / cqm=0 / deadzone=21,11 / fast_pskip=1 / chroma_qp_offset=-3 / threads=12 / sliced_threads=0 / nr=0 / decimate=1 / interlaced=0 / bluray_compat=0 / constrained_intra=0 / bframes=3 / b_pyramid=1 / b_adapt=2 / b_bias=0 / direct=3 / weightb=1 / open_gop=0 / weightp=2 / keyint=250 / keyint_min=25 / scenecut=40 / intra_refresh=0 / rc_lookahead=40 / rc=2pass / mbtree=1 / bitrate=8500 / ratetol=1.0 / qcomp=0.60 / qpmin=10 / qpmax=51 / qpstep=4 / cplxblur=20.0 / qblur=0.5 / ip_ratio=1.40 / aq=1:1.00
Audio
ID : 2
Format : AC-3
Format/Info : Audio Coding 3
Mode extension : CM (complete main)
Codec ID : A_AC3
Duration : 1h 15mn
Bit rate mode : Constant
Bit rate : 256 Kbps
Channel(s) : 2 channels
Channel positions : Front: L R
Sampling rate : 48.0 KHz
Bit depth : 16 bits
Stream size : 139 MiB (4%)

Скриншоты




Показать сообщения:    

Текущее время: 09-Дек 18:29

Часовой пояс: UTC + 3


Вы не можете начинать темы
Вы не можете отвечать на сообщения
Вы не можете редактировать свои сообщения
Вы не можете удалять свои сообщения
Вы не можете голосовать в опросах
Вы не можете прикреплять файлы к сообщениям
Вы не можете скачивать файлы