Имел бы я златые горы... (Модест Абрамов) [2008, Республика Беларусь, Лирическая комедия, DVB] Белорусский государственный молодежный театр, Минск


 

[Цитировать]

Имел бы я златые горы...
Название театра: Белорусский государственный молодежный театр, Минск
Страна: Республика Беларусь
Жанр: Лирическая комедия
Год выпуска: 2008
Продолжительность: 2-а действия 00:46:05 + 00:43:55
Перевод: Не требуется
Язык: Русский
Режиссёр: Народный артист Республики Северная Осетия-Алания Модест Абрамов
В ролях:
Корова Зорька - Анна Лаухина
Лошадь Сестричка - Раиса Сидорчик
Свинья - Наталья Онищенко
Пёс Крепыш - Сергей Шарангович
Петух - Юрий Баранов
Хозяйка - Елена Христич
Даша - Юлия Сурмейко
Алексей - Денис Мойсейчик
Хозяин - Александр Шаров
Сосед - заслуженный артист Республики Беларусь Сергей Журавель
Описание:
Спектакль по пьесе Марии Ладо «Очень простая история».
Очень простая история, в которой петух говорит о политике и рекламе, лошадь и собака спорят о том, кто должен пожертвовать жизнью ради ещё не родившегося ребёнка, свинья становится ангелом, а люди, как всегда, ссорятся, мирятся, любят и рожают детей…
Большая часть персонажей — животные, которые рассуждают о жизни, смерти, о будущем и настоящем, о том, что интересует всех на этой планете. Они с недоумением смотрят на своих хозяев, ведь животным неведомы людские пороки: зависть, мстительность, злоба, предательство. А человеческие проблемы на их взгляд просто смешны. Смех сквозь слёзы… И всё же, слёзы эти чисты, а смех светел.
Доп. информация:
Художник-постановщик: А. Костюченко
Музыкальное оформление: М. Абрамов
Премьера: 2006 г.

Благодарность: исходник для данной раздачи, записан с цифрового наземного канала, т.е. DVB-Т
Запись потока *.ts с наземного цифрового телеканала "Беларусь 3", ремукс в *.mpg программой VideoReDo.
Семпл: http://rusfolder.com/42655196
Качество видео: DVB
Формат видео: MPG
Видео 1: MPEG2 Video 720x576 (4:3) 25.00fps, 3 032 Кбит/сек
Видео 2: MPEG2 Video 720x576 (4:3) 25.00fps, 3 033 Кбит/сек
Аудио: MPEG Audio 48000Hz stereo 256kbps, 2 канала

MediaInfo 1

General
Complete name : D:\Театр\Имел бы я златые горы... (2008)\Имел бы я златые горы... (2008)\Имел бы я златые горы..._01_(2008).mpg
Format : MPEG-PS
File size : 1.08 GiB
Duration : 46mn 4s
Overall bit rate mode : Variable
Overall bit rate : 3 355 Kbps
Video
ID : 224 (0xE0)
Format : MPEG Video
Format version : Version 2
Format profile : Main@Main
Format settings, BVOP : Yes
Format settings, Matrix : Custom
Format settings, GOP : M=3, N=15
Format settings, picture st : Frame
Duration : 46mn 4s
Bit rate mode : Variable
Bit rate : 3 032 Kbps
Maximum bit rate : 9 500 Kbps
Width : 720 pixels
Height : 576 pixels
Display aspect ratio : 4:3
Frame rate : 25.000 fps
Standard : PAL
Color space : YUV
Chroma subsampling : 4:2:0
Bit depth : 8 bits
Scan type : Interlaced
Scan order : Top Field First
Compression mode : Lossy
Bits/(Pixel*Frame) : 0.292
Time code of first frame : 00:00:00:00
Time code source : Group of pictures header
GOP, Open/Closed : Open
Stream size : 999 MiB (90%)
GOP, Open/Closed of first f : Closed
Audio
ID : 192 (0xC0)
Format : MPEG Audio
Format version : Version 1
Format profile : Layer 2
Duration : 46mn 4s
Bit rate mode : Constant
Bit rate : 256 Kbps
Channel(s) : 2 channels
Sampling rate : 48.0 KHz
Compression mode : Lossy
Stream size : 84.4 MiB (8%)

MediaInfo 2

General
Complete name : D:\Театр\Имел бы я златые горы... (2008)\Имел бы я златые горы... (2008)\Имел бы я златые горы..._02_(2008).mpg
Format : MPEG-PS
File size : 1.03 GiB
Duration : 43mn 55s
Overall bit rate mode : Variable
Overall bit rate : 3 356 Kbps
Video
ID : 224 (0xE0)
Format : MPEG Video
Format version : Version 2
Format profile : Main@Main
Format settings, BVOP : Yes
Format settings, Matrix : Custom
Format settings, GOP : M=3, N=15
Format settings, picture st : Frame
Duration : 43mn 55s
Bit rate mode : Variable
Bit rate : 3 033 Kbps
Maximum bit rate : 9 500 Kbps
Width : 720 pixels
Height : 576 pixels
Display aspect ratio : 4:3
Frame rate : 25.000 fps
Standard : PAL
Color space : YUV
Chroma subsampling : 4:2:0
Bit depth : 8 bits
Scan type : Interlaced
Scan order : Top Field First
Compression mode : Lossy
Bits/(Pixel*Frame) : 0.293
Time code of first frame : 00:00:00:00
Time code source : Group of pictures header
GOP, Open/Closed : Open
Stream size : 953 MiB (90%)
GOP, Open/Closed of first f : Closed
Audio
ID : 192 (0xC0)
Format : MPEG Audio
Format version : Version 1
Format profile : Layer 2
Duration : 43mn 55s
Bit rate mode : Constant
Bit rate : 256 Kbps
Channel(s) : 2 channels
Sampling rate : 48.0 KHz
Compression mode : Lossy
Stream size : 80.4 MiB (8%)



Показать сообщения:    

Текущее время: 08-Дек 23:11

Часовой пояс: UTC + 3


Вы не можете начинать темы
Вы не можете отвечать на сообщения
Вы не можете редактировать свои сообщения
Вы не можете удалять свои сообщения
Вы не можете голосовать в опросах
Вы не можете прикреплять файлы к сообщениям
Вы не можете скачивать файлы