Опасные дни: Как создавался "Бегущий по Лезвию" / Dangerous Days: Making Blade Runner (Шарль де Лаузирика / Charles de Lauzirika) [2007, Документальный, DVDRip -AVC]


Статистика раздачи [Обновить пиров]
Размер:  4.07 GB   |    Зарегистрирован:  8 месяцев 17 дней   |    Скачан:  0 раз

Полного источника не было: Никогда

Личеров:  3  [  0 KB/s  ]   Подробная статистика пиров
 
   
 
 
 

[Цитировать]

Опасные дни: Как создавался "Бегущий по Лезвию" / Dangerous Days: Making Blade Runner
Дата/Год выпуска: 2007
Страна: США
Жанр: Документальный
Продолжительность: 03:34:06
Перевод: Профессиональный (двухголосый закадровый)
Доп. инфо о переводе: Киномания
Русские субтитры: нет
Формат субтитров: softsub (SRT) Английский, English
Оригинальная аудиодорожка: английский
Режиссер: Шарль де Лаузирика / Charles de Lauzirika
Описание: Эта документалка - не из тех пиарных передач, что выходят к киностарту, в которых все участники занимаются взаимным лизоблюдством. Это - кинодокумент к культовому фильму, описывающий и взлеты, и паденья, и трудности съемок, и крепкие словца. "Опасные Дни: как создавался Бегущий по лезвию" - документальный фильм длиной в три с половиной часа. Режиссер и продюсер - Шарль де Лаузирика, создавший этот фильм для выхода Финальной версии "Бегущего по лезвию" в 2007 году. Этот диск прилагался к разным изданиям "финальной версии" - на DVD, BluRay и HD-DVD. Документальный фильм подробно и хронологически освещает разные аспекты создания культового фильма "Бегущий по лезвию", и содержит материал более из 80 интервью, которые были проведены с актерами и создателями фильма. В фильме участвуют Харрисон Форд, Шон Янг, Рутгер Хауэр, Эдвард Джеймс Олмос, Джерри Перенчио, Бад Йоркин и режиссер Ридли Скотт. Помимо архивных кадров и фотографий в контексте документального фильма используются неиспользованные и удаленные сцены. Документальный фильм состоит из восьми глав, каждая из которых посвещена одному из аспектов кинопроизводства. Последняя же глава посвящяется восприятию фильма публикой и его последующему переизданию.
Доп. информация: DVDRip сделан из второго DVD9, 2-х дискового издания Киномании http://teatrix.ru/viewtopic.php?t=723029,
Навигация содержит 8 глав
качество: DVDRip
формат: MKV
Видеокодек: h264
Аудиокодек: AC3
Видео: High@L4.1, 2337 Kbps, 720x576@(1024x576), 25fps, DXVA, 3 прохода
Аудио: Русский - 192kbps, AC3, 16bit/48khz, 2ch
Аудио 2: English - 192kbps, AC3, 16bit/48khz, 2ch

Список выпусков/серий

Навигация:
· Part 1 Incept Date – 1980: Screenwriting and Dealmaking (0:00:00)
· Part 2 Blush Response: Assembling the Cast (0:30:36)
· Part 3 A Good Start: Designing the Future (0:53:21)
· Part 4 Eye of the Storm: Production Begins (1:19:54)
· Part 5 Living in Fear: Tension on the Set (1:48:41)
· Part 6 Beyond the Window: Visual Effects (2:18:03)
· Part 7 In Need of Magic: Post-Production Problems (2:46:51)
· Part 8 To Hades and Back: Release and Resurrection (3:09:55)

MediaInfo

General
Unique ID : 196298600361488821024262970133680317605 (0x93ADBC39324E4D80A8C48824350D64A5)
Complete name : D:\torrents\files\Dangerous Days - Making Blade Runner.mkv
Format : Matroska
Format version : Version 4 / Version 2
File size : 4.07 GiB
Duration : 3h 34mn
Overall bit rate : 2 723 Kbps
Encoded date : UTC 2014-12-29 22:03:06
Writing application : mkvmerge v7.4.0 ('Circles') 64bit built on Dec 12 2014 12:19:56
Writing library : libebml v1.3.0 + libmatroska v1.4.1
DURATION : 03:32:04.320000000
NUMBER_OF_FRAMES : 3769
NUMBER_OF_BYTES : 202296
_STATISTICS_WRITING_APP : mkvmerge v7.4.0 ('Circles') 64bit built on Dec 12 2014 12:19:56
_STATISTICS_WRITING_DATE_UTC : 2014-12-29 22:03:06
_STATISTICS_TAGS : BPS DURATION NUMBER_OF_FRAMES NUMBER_OF_BYTES
Video
ID : 1
Format : AVC
Format/Info : Advanced Video Codec
Format profile : High@L4.1
Format settings, CABAC : Yes
Format settings, ReFrames : 16 frames
Codec ID : V_MPEG4/ISO/AVC
Duration : 3h 34mn
Bit rate : 2 337 Kbps
Width : 720 pixels
Height : 576 pixels
Display aspect ratio : 16:9
Original display aspect ratio : 1.85:1
Frame rate mode : Constant
Frame rate : 25.000 fps
Standard : PAL
Color space : YUV
Chroma subsampling : 4:2:0
Bit depth : 8 bits
Scan type : Progressive
Bits/(Pixel*Frame) : 0.225
Stream size : 3.42 GiB (84%)
Title : Dangerous Days: Making Blade Runner
Writing library : x264 core 142 r2431 ac76440
Encoding settings : cabac=1 / ref=16 / deblock=1:0:0 / analyse=0x3:0x133 / me=umh / subme=10 / psy=1 / psy_rd=1.00:0.00 / mixed_ref=1 / me_range=24 / chroma_me=1 / trellis=2 / 8x8dct=1 / cqm=0 / deadzone=21,11 / fast_pskip=1 / chroma_qp_offset=-2 / threads=12 / lookahead_threads=2 / sliced_threads=0 / nr=0 / decimate=1 / interlaced=0 / bluray_compat=0 / constrained_intra=0 / bframes=8 / b_pyramid=2 / b_adapt=2 / b_bias=0 / direct=3 / weightb=1 / open_gop=0 / weightp=2 / keyint=250 / keyint_min=25 / scenecut=40 / intra_refresh=0 / rc_lookahead=60 / rc=2pass / mbtree=1 / bitrate=2337 / ratetol=1.0 / qcomp=0.60 / qpmin=0 / qpmax=69 / qpstep=4 / cplxblur=20.0 / qblur=0.5 / vbv_maxrate=62500 / vbv_bufsize=78125 / nal_hrd=none / filler=0 / ip_ratio=1.40 / aq=1:1.00
Default : Yes
Forced : No
Audio #1
ID : 2
Format : AC-3
Format/Info : Audio Coding 3
Mode extension : CM (complete main)
Format settings, Endianness : Big
Codec ID : A_AC3
Duration : 3h 34mn
Bit rate mode : Constant
Bit rate : 192 Kbps
Channel(s) : 2 channels
Channel positions : Front: L R
Sampling rate : 48.0 KHz
Bit depth : 16 bits
Compression mode : Lossy
Stream size : 294 MiB (7%)
Language : Russian
Default : No
Forced : No
Audio #2
ID : 3
Format : AC-3
Format/Info : Audio Coding 3
Mode extension : CM (complete main)
Format settings, Endianness : Big
Codec ID : A_AC3
Duration : 3h 34mn
Bit rate mode : Constant
Bit rate : 192 Kbps
Channel(s) : 2 channels
Channel positions : Front: L R
Sampling rate : 48.0 KHz
Bit depth : 16 bits
Compression mode : Lossy
Stream size : 294 MiB (7%)
Language : English
Default : No
Forced : No
Text
ID : 4
Format : UTF-8
Codec ID : S_TEXT/UTF8
Codec ID/Info : UTF-8 Plain Text
Title : Dangerous Days: Making Blade Runner
Language : English
Default : No
Forced : No
Menu
00:00:00.000 : en:Incept Date – 1980: Screenwriting and Dealmaking
00:30:36.000 : en:Blush Response: Assembling the Cast
00:53:21.000 : en:A Good Start: Designing the Future
01:19:54.000 : en:Eye of the Storm: Production Begins
01:48:41.000 : :Living in Fear: Tension on the Set
02:18:03.000 : en:Beyond the Window: Visual Effects
02:46:51.000 : en:In Need of Magic: Post-Production Problems
03:09:55.000 : en:To Hades and Back: Release and Resurrection
[teatrix.ru].t19937.torrent 
Торрент: Зарегистрирован [ 2016-03-19 00:34 ] · 39DB0D990781F5F0C99AA9B474169C0C79C4E3C0

Скачать .torrent

Скачать

11 KB

Статус: проверено
Скачан: 0 раз
Размер: 4.07 GB
terms.php



Показать сообщения:    

Текущее время: 05-Дек 03:30

Часовой пояс: UTC + 3


Вы не можете начинать темы
Вы не можете отвечать на сообщения
Вы не можете редактировать свои сообщения
Вы не можете удалять свои сообщения
Вы не можете голосовать в опросах
Вы не можете прикреплять файлы к сообщениям
Вы можете скачивать файлы