Перголези - Адриан в Сирии, интермеццо Ливьетта и Тракколо (театр Дж. Б. Перголези; Гарсиа) / Pergolesi - Adriano in Siria, intermezzo Livietta e Tracollo (Teatro Comunale Pergolesi, Ignacio García, Ottavio Dantone) [2010, Opera, Blu-ray 1080i]


 

[Цитировать]

Джованни Баттиста Перголези - Адриан в Сирии, интермеццо Ливьетта и Тракколо / Giovanni Battista Pergolesi - Adriano in Siria, intermezzo Livietta e Tracollo
Год выпуска: 2010
Лейбл: Opus Arte, Unitel Classica
Страна-производитель: США
Жанр: Opera
Продолжительность: 03:10:42
Язык: Итальянский
Субтитры: Английские, французские, немецкие, итальянские, испанские
Режиссер: Ignacio García (Игнасио Гарсиа)
Дирижер: Ottavio Dantone (Оттавио Дантоне)
Исполнители:
Marina Comparato (Марина Компарато) - Adriano,
Lucia Cirillo (Лючия Чирилло) - Emirena,
Annamaria Dell'Oste (Анна-Мария Делл'Осте) - Franaspe,
Nicole Heaston (Николь Хистон) - Sabina,
Stefano Ferrari (Стефано Феррари) - Osroa,
Francesca Lombardi (Францеска Лобмарди) - Aquilio Tribuno
Intermezzo Livietta e Tracollo (интермедия Ливьетта и Тракколо):
Monica Bacelli (Моника Бачелли) - Livietta,
Carlo Lepore (Карло Лепоре) - Tracollo
Accademia Bizantina (ансамбль "Византийская академия")
Описание: Либретто - Pietro Metastasio
Музыкальная драма в трёх актах.
Первая постановка 25 октября 1734 года в театре Teatro San Bartolomeo, г. Неаполь.
Запись сделана 8-го и 12-го июня 2010 года в театре Дж.Б.Перголези, г. Йеси.
Место и время действия - Антиохия, II век н.э.
После (выдуманной Метастазио) победы на парфянами, римский император Адриан располагается в отвоеванной Антиохии; свергнутый царь парфян Хосрой куда-то исчезает. Ликуя среди многочисленных трофеев, победоносные римские войска прославляют Адриана. Появляется приближенный императора Аквилий и докладывает, что доблестный парфянский принц Фарнасп просит об аудиенции. Входит Фарнасп, сопровождаемый Хосроем, переодетым римлянином, и смиренно просит Адриана освободить дочь Хосроя принцессу Эмирену, захваченную в плен. Адриан, уже успевший влюбиться а принцессу, отвечает, что освободит её, как только найдёт царя Хосроя.
Дальнейшее развитие сюжета сводится к излюбленной метастазиевской интриге – Сабина (в которую влюблен Аквилий), римская патрицианка, с которой Адриан обручен, внезапно приезжает в Антиохию и застигает Адриана во время ухаживаний за Эмиреной – растерявшийся император быстро уходит, сославшись на неотложные дела. Эмирена и Фарнасп любят друг друга, но Аквилий запугал Эмирену тем, что её расположение к Фарнаспу может стоить последнему жизни из-за ревности Адриана; поэтому при встрече с Фарнаспом Эмирена напускает на себя притворную холодность, чтобы спасти возлюбленного. Фарнасп в растерянности уходит. Этой же ночью верные Хосрою воины поджигают царский дворец, в котором расположился Адриан. Фарнасп бросается в горящий дворец, чтобы спасти Эмирену, но схвачен римлянами и обвинен в поджоге. После многочисленных пертурбаций запутанного сюжета (включащих попытку убийства Адриана Хосроем), все заканчивается благополучно – интриган Аквилий (пытавшийся поссорить Адриана с Сабиной, чтобы самому заполучить её) наказан, но затем прощён; Хосрою возвращено его царство, Фарнасп получает Эмирену, а сам Адриан – Сабину.

Оригинальное описание

For the festivities marking the Pergolesi’s tercentenary in his native Jesi, Ignacio García created a new staging of the imperial drama Adriano in Siria. His staging in Jesi’s exquisite 18th-century Teatro Comunale Pergolesi includes the delightful comic intermezzo Livietta e Tracollo, thus following the precedent set at the premiere in 1734. A fine Italian cast and the distinguished Accademia Bizantina are led by the Accademia’s director, Ottavio Dantone.
Recorded live from the Teatro Comunale Pergolesi, Jesi, 2010.
Качество видео: Blu-ray
Формат/Контейнер: BDMV
Видео кодек: MPEG4
Аудио кодек: LPCM, DTS
Видео поток: MPEG-4 Video, 1920x1080, 20147 kbps, 29.970 fps
Аудио поток: LPCM, 2304 kbps, 48 kHz, 2 ch. DTS-HD MA, 4126 kbps, 48 kHz, 6 ch

BD-Info

DISC INFO:
Disc Title: Перголези - Адриан в Сирии (Teatro Comunale Pergolesi) (2010) (Blu-ray 1080i, AVC, DTS-HD 5.1)
Disc Size: 40 263 085 913 bytes
Protection: AACS
BD-Java: No
BDInfo: 0.5.8
PLAYLIST REPORT:
Name: 00000.MPLS
Length: 3:10:42.130 (h:m:s.ms)
Size: 13 105 029 504 bytes
Total Bitrate: 9,16 Mbps
VIDEO:
Codec Bitrate Description
----- ------- -----------
MPEG-4 AVC Video 20147 kbps 1080i / 29,970 fps / 16:9 / High Profile 4.1
AUDIO:
Codec Language Bitrate Description
----- -------- ------- -----------
DTS-HD Master Audio Italian 4126 kbps 5.1 / 48 kHz / 4126 kbps / 24-bit (DTS Core: 5.1 / 48 kHz / 1509 kbps / 24-bit)
LPCM Audio Italian 2304 kbps 2.0 / 48 kHz / 2304 kbps / 24-bit
SUBTITLES:
Codec Language Bitrate Description
----- -------- ------- -----------
Presentation Graphics English 12,907 kbps
Presentation Graphics French 13,108 kbps
Presentation Graphics German 14,656 kbps
Presentation Graphics Spanish 13,468 kbps
Presentation Graphics Italian 12,144 kbps
FILES:
Name Time In Length Size Total Bitrate
---- ------- ------ ---- -------------
00000.M2TS 0:00:00.000 1:33:03.444 13 105 294 848 28 176
00001.M2TS 1:33:03.444 1:04:55.258 0 0
00002.M2TS 2:37:58.702 0:32:43.428 0 0
Семпл

Скриншоты



Внимание! Диск без меню и без допов. Переключение чаптеров и включение субтитров кнопками управления плейера!



Показать сообщения:    

Текущее время: 09-Дек 06:53

Часовой пояс: UTC + 3


Вы не можете начинать темы
Вы не можете отвечать на сообщения
Вы не можете редактировать свои сообщения
Вы не можете удалять свои сообщения
Вы не можете голосовать в опросах
Вы не можете прикреплять файлы к сообщениям
Вы не можете скачивать файлы