Вильям Похлебкин. Рецепты нашей жизни (Вера Кильчевская) [2014, Документальный, SATRip]


Статистика раздачи [Обновить пиров]
Размер:  582 MB   |    Зарегистрирован:  8 месяцев 20 дней   |    Скачан:  0 раз

Полного источника не было: Никогда

Личеров:  3  [  0 KB/s  ]   Подробная статистика пиров
 
   
 
 
 

[Цитировать]

Вильям Похлебкин. Рецепты нашей жизни
Дата/Год выпуска: 2014
Страна: Россия
Жанр: Документальный
Продолжительность: 00:43:11
Перевод: Не требуется
Русские субтитры: нет
Оригинальная аудиодорожка: русский
Режиссер: Вера Кильчевская
Телеканал: Россия 1
Описание: Одни считали его сумасшедшим. Другие утверждали, что он является скрытым диссидентом, который сознательно прожил свою жизнь вне государства, вне системы. Третьи говорили, что свой уникальный исследовательский талант он променял на какие-то глупости – написание кулинарных рецептов, книжек о еде и гастрономические советы для домохозяек.
Те, кто так думал, ошибались. Кулинарный талант и ум Вильяма Похлебкина оказались востребованными. Его работы стали своеобразной школой вкусной и здоровой национальной пищи в СССР. Его рецепты давали возможность тысячам обычных советских людей попробовать себя в искусстве кулинарии и ощутить радость творчества на собственной кухне.
Автор сценария: Александр Крастошевский
качество: SATRip
формат: AVI
Видео: 720x400 (1.80:1), 25 fps, XviD build 64 ~1744 kbps avg, 0.24 bit/pixel
Аудио: 48 kHz, MPEG Layer 3, 2 ch, ~128.00 kbps avg

MediaInfo

Формат                                   : AVI
Формат/Информация : Audio Video Interleave
Размер файла : 582 Мбайт
Продолжительность : 43 м.
Общий поток : 1883 Кбит/сек
Библиотека кодирования : VirtualDub build 30009/release
Видео
Идентификатор : 0
Формат : MPEG-4 Visual
Профиль формата : Advanced Simple@L5
Параметр BVOP формата : 2
Параметр QPel формата : Нет
Параметр GMC формата : Без точки перехода
Параметр матрицы формата : Default (MPEG)
Идентификатор кодека : XVID
Идентификатор кодека/Подсказка : XviD
Продолжительность : 43 м.
Битрейт : 1745 Кбит/сек
Ширина : 720 пикселей
Высота : 400 пикселей
Соотношение сторон : 16:9
Частота кадров : 25,000 кадров/сек
Цветовое пространство : YUV
Субдискретизация насыщенности : 4:2:0
Битовая глубина : 8 бит
Тип развёртки : Прогрессивная
Метод сжатия : С потерями
Бит/(Пиксели*Кадры) : 0.242
Размер потока : 539 Мбайт (93%)
Библиотека кодирования : XviD 64
Аудио
Идентификатор : 1
Формат : MPEG Audio
Версия формата : Version 1
Профиль формата : Layer 3
Режим : Joint stereo
Расширение режима : MS Stereo
Идентификатор кодека : 55
Идентификатор кодека/Подсказка : MP3
Продолжительность : 43 м.
Вид битрейта : Постоянный
Битрейт : 128 Кбит/сек
Каналы : 2 канала
Частота : 48,0 КГц
Метод сжатия : С потерями
Размер потока : 39,5 Мбайт (7%)
Выравнивание : Разделение по промежуткам
Продолжительность промежутка : 40 мс. (1,00 видеокадр)
Время предзагрузки промежутка : 500 мс.

Скриншоты

[teatrix.ru].t19940.torrent 
Торрент: Зарегистрирован [ 2016-03-19 00:34 ] · 3BFE770478A2197F09D318A338987AF1351851B7

Скачать .torrent

Скачать

12 KB

Статус: проверено
Скачан: 0 раз
Размер: 582 MB
terms.php



Быстрый ответ

Имя:

      
Для отправки сообщений необходимо включить JavaScript
Показать сообщения:    

Текущее время: 08-Дек 23:13

Часовой пояс: UTC + 3


Вы можете начинать темы
Вы можете отвечать на сообщения
Вы не можете редактировать свои сообщения
Вы не можете удалять свои сообщения
Вы не можете голосовать в опросах
Вы не можете прикреплять файлы к сообщениям
Вы можете скачивать файлы