Ален Делон и Жан-Поль Бельмондо о фильме Борсалино / Borsalino Interview [1969 - 1970, документальный, кинематограф, DVDRip-AVC] VO (Andi999) + Original (Fre) + Sub (Rus)


Статистика раздачи [Обновить пиров]
Размер:  74 MB   |    Зарегистрирован:  8 месяцев 16 дней   |    Скачан:  0 раз

Полного источника не было: Никогда

Личеров:  3  [  0 KB/s  ]   Подробная статистика пиров
 
   
 
 
 

[Цитировать]

Ален Делон и Жан-Поль Бельмондо о фильме "Борсалино"
Borsalino Interview- Дата/Год выпуска: 1969 - 1970
Страна: Франция
Жанр: документальный, кинематограф
Продолжительность: 00:05:03
Перевод: Одноголосый закадровый (Andi999)
Русские субтитры: естьФормат субтитров: softsub (SRT)
Доп. информация о субтитрах: перевод Алексей Королев, консультант Alec Storm, инициатор Алексей Проскуряков aka Aleks Punk
Оригинальная аудиодорожка: французский
Режиссер: не указан
Описание: Несколько бонусных интервью к Коллекционному DVD-изданию фильма "Борсалино" / Borsalino Edition Collector.
1. Интервью каналу ORTF (12.10.1969) о съемках фильма "Борсалино". О фильме рассказывает режиссер Жак Дере и актер Ален Делон, выступивший продюсером этого фильма, использована хроника со съемок.
2. Интервью Алена Делона каналу ORTF (20.05.1970) перед премьерой фильма "Борсалино".
3. Фрагмент интервью Жана-Поля Бельмондо каналу ORTF (1970) – несколько слов о персонаже. Интервью берет французская актриса, журналист, сценарист и кинокритик Франс Рош / France Roche, которая за время работы на канале Antenne 2 брала интервью у многих знаменитостей, в том числе Брижит Бардо, Кирка Дугласа, Пьера Брассёра, Жана Маре, Анни Жирардо, Симоны Синьоре, Мишеля Пикколи, Жанны Моро и других.
4. Ален Делон и Жан-Поль Бельмондо в перерывах съемок (1969) о персонажах фильма.
Доп. информация: Исходник DVD9. За предоставленный материал благодарность Aleks Punk.

качество: DVDRip-AVC
формат: MKV
Видео: AVC (H.264), 704x528 (4:3), 25 fps, ~1596 kbps avg, 0.172 bit/pixel
Аудио: AC3, 2 ch, 48 kHz, ~192.00 kbps avg - русский
Аудио: AC3, 2 ch, 48 kHz, ~192.00 kbps avg - французский

MediaInfo

Общее
Уникальный идентификатор : 234269526121599120415522926912913116037 (0xB03EAB67125BE0CFA20E737D4CC98B85)
Полное имя : H:\My Torrents\[apreder]Borsalino_interview(1969-1970)DVDRip.mkv
Формат : Matroska
Версия формата : Version 2
Размер файла : 73,7 Мбайт
Продолжительность : 5 м. 3 с.
Общий поток : 2039 Кбит/сек
Дата кодирования : UTC 2015-07-23 15:58:29
Программа кодирования : mkvmerge v8.2.0 ('World of Adventure') 64bit
Библиотека кодирования : libebml v1.3.1 + libmatroska v1.4.2
Attachements : cover.png / cover_small.png
Видео
Идентификатор : 1
Формат : AVC
Формат/Информация : Advanced Video Codec
Профиль формата : High@L4.1
Параметр CABAC формата : Да
Параметр ReFrames формата : 16 кадров
Идентификатор кодека : V_MPEG4/ISO/AVC
Продолжительность : 5 м. 3 с.
Битрейт : 1614 Кбит/сек
Номинальный битрейт : 2000 Кбит/сек
Ширина : 704 пикселя
Высота : 528 пикселей
Соотношение сторон : 4:3
Режим частоты кадров : Постоянный
Частота кадров : 25,000 кадров/сек
Цветовое пространство : YUV
Субдискретизация насыщенности : 4:2:0
Битовая глубина : 8 бит
Тип развёртки : Прогрессивная
Бит/(Пиксели*Кадры) : 0.174
Размер потока : 58,4 Мбайт (79%)
Библиотека кодирования : x264 core 144 r2525 40bb568
Настройки программы : cabac=1 / ref=16 / deblock=1:-1:-1 / analyse=0x3:0x133 / me=umh / subme=10 / psy=1 / psy_rd=1.00:0.15 / mixed_ref=1 / me_range=24 / chroma_me=1 / trellis=2 / 8x8dct=1 / cqm=0 / deadzone=21,11 / fast_pskip=1 / chroma_qp_offset=-3 / threads=6 / lookahead_threads=1 / sliced_threads=0 / nr=0 / decimate=1 / interlaced=0 / bluray_compat=0 / constrained_intra=0 / bframes=8 / b_pyramid=2 / b_adapt=2 / b_bias=0 / direct=3 / weightb=1 / open_gop=0 / weightp=2 / keyint=250 / keyint_min=25 / scenecut=40 / intra_refresh=0 / rc_lookahead=60 / rc=2pass / mbtree=1 / bitrate=2000 / ratetol=1.0 / qcomp=0.60 / qpmin=0 / qpmax=69 / qpstep=4 / cplxblur=20.0 / qblur=0.5 / vbv_maxrate=62500 / vbv_bufsize=78125 / nal_hrd=none / filler=0 / ip_ratio=1.40 / aq=1:1.00
Default : Да
Forced : Нет
Аудио #1
Идентификатор : 2
Формат : AC-3
Формат/Информация : Audio Coding 3
Расширение режима : CM (complete main)
Параметр Endianness формата : Big
Идентификатор кодека : A_AC3
Продолжительность : 5 м. 3 с.
Вид битрейта : Постоянный
Битрейт : 192 Кбит/сек
Каналы : 2 канала
Расположение каналов : Front: L R
Частота : 48,0 КГц
Метод сжатия : С потерями
Размер потока : 6,94 Мбайт (9%)
Язык : Russian
Default : Нет
Forced : Нет
Аудио #2
Идентификатор : 3
Формат : AC-3
Формат/Информация : Audio Coding 3
Расширение режима : CM (complete main)
Параметр Endianness формата : Big
Идентификатор кодека : A_AC3
Продолжительность : 5 м. 3 с.
Вид битрейта : Постоянный
Битрейт : 192 Кбит/сек
Каналы : 1 канал
Расположение каналов : Front: C
Частота : 48,0 КГц
Метод сжатия : С потерями
Размер потока : 6,94 Мбайт (9%)
Язык : French
Default : Да
Forced : Нет
Текст
Идентификатор : 4
Формат : UTF-8
Идентификатор кодека : S_TEXT/UTF8
Идентификатор кодека/Информация : UTF-8 Plain Text
Язык : Russian
Default : Да
Forced : Нет

Скриншоты

Резервные скриншоты

-[2'016]
[teatrix.ru].t19945.torrent 
Торрент: Зарегистрирован [ 2016-03-19 00:34 ] · 94474F9E7483D8E1FF8E09A4F6FD841A2B35A54A

Скачать .torrent

Скачать

12 KB

Статус: проверено
Скачан: 0 раз
Размер: 74 MB
terms.php



Показать сообщения:    

Текущее время: 04-Дек 02:52

Часовой пояс: UTC + 3


Вы не можете начинать темы
Вы не можете отвечать на сообщения
Вы не можете редактировать свои сообщения
Вы не можете удалять свои сообщения
Вы не можете голосовать в опросах
Вы не можете прикреплять файлы к сообщениям
Вы можете скачивать файлы