(Classical / Vocal) Gustav Mahler - Lieder und Gesange aus der Jugendzeit • Winterlied • Im Lenz • Lieder eines fahrenden Gesellen (Janet Baker, Jeoffrey Parsons, 1983) - 1986, FLAC (image+.cue) lossless


 

[Цитировать]

Gustav Mahler | Густав Малер
(1860–1911)



Lieder und Gesänge aus der Jugendzeit | Winterlied | Im Lenz
Lieder eines fahrenden Gesellen



Janet Baker mezzo-sopranoJeoffrey Parsons piano


Жанр: Classical / Vocal
Дата записи: 24 & 25 February 1983
Формат записи: DDD, Stereo
Год издания диска: 1986
Издатель (лейбл): Hyperion Records
Номер по каталогу: CDA66100
Аудиокодек: FLAC
Тип рипа: image+.cue
Битрейт аудио: lossless
Продолжительность: 57:40
Наличие сканов в содержимом раздачи: да
Источник: блог OdeonMusic


Tracklist / Треклист
Lieder und Gesänge aus der Jugendzeit - 34:50
Hans und Grete - 2:24
Winterlied - 3:25
  • Im Lenz - 2:27
    Lieder und Gesänge aus der Jugendzeit (cont.)
    Frühlingsmorgen - 1:31
  • Serenade aus «Don Juan» - 2:15
  • Ich ging mit Lust durch einen grünen Wald - 4:09
  • Starke Einbildungskraft - 1:09
  • Erinnerung - 2:33
  • Selbstgefühl - 1:39
  • Nicht weidersehen! - 4:32
  • Um schlimme Kinder artig zu machen - 1:52
  • Aus! Aus! - 2:29
  • Zu Strassburg auf der Schanz' - 3:46
  • Scheiden und Meiden - 2:33
  • Phantasie aus «Don Juan» - 2:25
  • Ablösung im Sommer - 1:33
    Lieder eines fahrenden Gesellen - 16:58
    I. Wenn mein Schatz Hochzeit macht - 4:20
  • II. Ging heut' morgen über's Feld - 4:43
  • III. Ich hab' ein glühend Messer - 3:04
  • IV. Die zwei blauen Augen von meinem Schatz - 4:51

    -

    EAC log / Отчёт EAC

    Exact Audio Copy V1.0 beta 3 from 29. August 2011
    EAC extraction logfile from 20. May 2014, 11:03
    Dame Janet Baker / Mahler - 'Songs of Youth' - Janet Baker
    Used drive : TSSTcorpCDDVDW SH-222BB Adapter: 2 ID: 1
    Read mode : Secure
    Utilize accurate stream : Yes
    Defeat audio cache : Yes
    Make use of C2 pointers : No
    Read offset correction : 6
    Overread into Lead-In and Lead-Out : No
    Fill up missing offset samples with silence : Yes
    Delete leading and trailing silent blocks : No
    Null samples used in CRC calculations : Yes
    Used interface : Native Win32 interface for Win NT & 2000
    Used output format : User Defined Encoder
    Selected bitrate : 896 kBit/s
    Quality : High
    Add ID3 tag : No
    Command line compressor : C:\Program Files\Exact Audio Copy\FLAC\FLAC.EXE
    Additional command line options : -8 -V -T "TITLE=%title%" -T "ARTIST=%artist%" -T "ALBUMARTIST=%albumartist%" -T "ALBUM=%albumtitle%" -T "DATE=%year%" -T "TRACKNUMBER=%tracknr%" -T "TRACKTOTAL=%numtracks%" -T "GENRE=%genre%" -T "COMMENT=%comment%" -T "PERFORMER=%albuminterpret%" -T "COMPOSER=%composer%" %source% -o %dest%
    TOC of the extracted CD
    Track | Start | Length | Start sector | End sector
    ---------------------------------------------------------
    1 | 0:00.00 | 2:24.20 | 0 | 10819
    2 | 2:24.20 | 3:25.32 | 10820 | 26226
    3 | 5:49.52 | 2:26.43 | 26227 | 37219
    4 | 8:16.20 | 1:31.05 | 37220 | 44049
    5 | 9:47.25 | 2:14.62 | 44050 | 54161
    6 | 12:02.12 | 4:08.50 | 54162 | 72811
    7 | 16:10.62 | 1:09.13 | 72812 | 77999
    8 | 17:20.00 | 2:33.20 | 78000 | 89494
    9 | 19:53.20 | 1:39.22 | 89495 | 96941
    10 | 21:32.42 | 4:32.15 | 96942 | 117356
    11 | 26:04.57 | 1:51.60 | 117357 | 125741
    12 | 27:56.42 | 2:29.25 | 125742 | 136941
    13 | 30:25.67 | 3:45.48 | 136942 | 153864
    14 | 34:11.40 | 2:33.15 | 153865 | 165354
    15 | 36:44.55 | 2:24.47 | 165355 | 176201
    16 | 39:09.27 | 1:33.05 | 176202 | 183181
    17 | 40:42.32 | 4:19.53 | 183182 | 202659
    18 | 45:02.10 | 4:42.47 | 202660 | 223856
    19 | 49:44.57 | 3:04.28 | 223857 | 237684
    20 | 52:49.10 | 4:50.62 | 237685 | 259496
    Range status and errors
    Selected range
    Filename E:\4000\[4167] Mahler – 'Songs of Youth' – Janet Baker\Mahler - 'Songs of Youth' - Janet Baker.wav
    Peak level 100.0 %
    Extraction speed 6.7 X
    Range quality 100.0 %
    Test CRC 762135BB
    Copy CRC 762135BB
    Copy OK
    No errors occurred
    AccurateRip summary
    Track 1 accurately ripped (confidence 2) [BD2FA0C5] (AR v2)
    Track 2 accurately ripped (confidence 2) [8F2B8E02] (AR v2)
    Track 3 accurately ripped (confidence 2) [BD4365D7] (AR v2)
    Track 4 accurately ripped (confidence 2) [E911012A] (AR v2)
    Track 5 accurately ripped (confidence 2) [B9D6B813] (AR v2)
    Track 6 accurately ripped (confidence 2) [8B554F83] (AR v2)
    Track 7 accurately ripped (confidence 2) [32DBF7A8] (AR v2)
    Track 8 accurately ripped (confidence 2) [F2D256FB] (AR v2)
    Track 9 accurately ripped (confidence 2) [FF0E6F9D] (AR v2)
    Track 10 accurately ripped (confidence 2) [83188AC2] (AR v2)
    Track 11 accurately ripped (confidence 2) [A3F71FA9] (AR v2)
    Track 12 accurately ripped (confidence 2) [E335B680] (AR v2)
    Track 13 accurately ripped (confidence 2) [204A8014] (AR v2)
    Track 14 accurately ripped (confidence 2) [66DE6D22] (AR v2)
    Track 15 accurately ripped (confidence 2) [F98B7E18] (AR v2)
    Track 16 accurately ripped (confidence 2) [0E6F76AA] (AR v2)
    Track 17 accurately ripped (confidence 2) [81BC62A1] (AR v2)
    Track 18 accurately ripped (confidence 2) [1C3EA3E7] (AR v2)
    Track 19 cannot be verified as accurate (confidence 5) [43A2132E], AccurateRip returned [98516C62] (AR v2)
    Track 20 cannot be verified as accurate (confidence 5) [41A6A911], AccurateRip returned [BAB660A8] (AR v2)
    18 track(s) accurately ripped
    2 track(s) could not be verified as accurate
    Some tracks could not be verified as accurate
    End of status report
    ==== Log checksum 9753E9474AF30A8CC844D3FD6638D88DA441340AD133AF6C1757718E0B4E08A2 ====

    auCDtect Task Manager log / Отчёт auCDtect Task Manager

    -----------------------
    DON'T MODIFY THIS FILE
    -----------------------
    PERFORMER: auCDtect Task Manager, ver. 1.5.1RC3 build 1.5.1.4
    Copyright (c) 2008-2010 y-soft. All rights reserved
    ANALYZER: auCDtect: CD records authenticity detector, version 0.8.2
    Copyright (c) 2004 Oleg Berngardt. All rights reserved.
    Copyright (c) 2004 Alexander Djourik. All rights reserved.
    FILE: Mahler. Lieder und Gesaenge aus Jugendzeit (Baker, Parsons).flac
    Size: 217911704 Hash: FE871EB310049E0FD045B6E17AA278A2 Accuracy: -m0
    Conclusion: CDDA 99%
    Signature: 195F6FB0C79FE3EE8961C1F553FD866AFDD7A04F

    CUETools log / Отчёт CUETools

    [CUETools log; Date: 31.12.2014 22:36:31; Version: 2.1.4]
    [AccurateRip ID: 002606a8-0233e3f1-210d8314] found.
    Track [ CRC | V2 ] Status
    01 [f5f7f162|bd2fa0c5] (00+03/11) Accurately ripped
    02 [0370057f|8f2b8e02] (00+03/13) Accurately ripped
    03 [44262fed|bd4365d7] (00+03/13) Accurately ripped
    04 [319f4672|e911012a] (00+03/13) Accurately ripped
    05 [2ffff83e|b9d6b813] (00+03/13) Accurately ripped
    06 [0e876bf3|8b554f83] (00+03/11) Accurately ripped
    07 [cf18d20a|32dbf7a8] (00+03/12) Accurately ripped
    08 [75bc3e06|f2d256fb] (00+03/13) Accurately ripped
    09 [545d86d9|ff0e6f9d] (00+03/12) Accurately ripped
    10 [44cece69|83188ac2] (00+03/13) Accurately ripped
    11 [74f407ee|a3f71fa9] (00+03/13) Accurately ripped
    12 [8accf176|e335b680] (00+03/13) Accurately ripped
    13 [c816e036|204a8014] (00+03/13) Accurately ripped
    14 [9f661f0a|66de6d22] (00+03/12) Accurately ripped
    15 [22f87304|f98b7e18] (00+03/12) Accurately ripped
    16 [fdf97845|0e6f76aa] (00+03/13) Accurately ripped
    17 [0967c870|81bc62a1] (00+03/12) Accurately ripped
    18 [11cba82d|1c3ea3e7] (00+03/13) Accurately ripped
    19 [9d451a0f|43a2132e] (00+02/12) Accurately ripped
    20 [2680e236|41a6a911] (00+02/12) Accurately ripped
    Offsetted by 866:
    01 [36ba698f] (05/11) Accurately ripped
    02 [c719fa75] (05/13) Accurately ripped
    03 [c324ed5a] (05/13) Accurately ripped
    04 [47113c10] (05/13) Accurately ripped
    05 [e5867a49] (05/13) Accurately ripped
    06 [dc58ed56] (03/11) Accurately ripped
    07 [d75c7136] (04/12) Accurately ripped
    08 [981c8c10] (05/13) Accurately ripped
    09 [5e1147bd] (04/12) Accurately ripped
    10 [c22b949d] (05/13) Accurately ripped
    11 [f08372f8] (05/13) Accurately ripped
    12 [9794b59a] (05/13) Accurately ripped
    13 [acf31cfa] (05/13) Accurately ripped
    14 [286c57c9] (04/12) Accurately ripped
    15 [2c10d07b] (04/12) Accurately ripped
    16 [d69a3052] (05/13) Accurately ripped
    17 [e45ca028] (04/12) Accurately ripped
    18 [526e3586] (05/13) Accurately ripped
    19 [98516c62] (05/12) Accurately ripped
    20 [bab660a8] (05/12) Accurately ripped
    Offsetted by -149:
    01 [79197fc2] (00/11) No match (V2 was not tested)
    02 [6c0b5c02] (00/13) No match (V2 was not tested)
    03 [f13ae7af] (00/13) No match (V2 was not tested)
    04 [c0e93c54] (00/13) No match (V2 was not tested)
    05 [1be90f6f] (00/13) No match (V2 was not tested)
    06 [b1fcf675] (00/11) No match (V2 was not tested)
    07 [0a8a8d34] (00/12) No match (V2 was not tested)
    08 [1c1178bf] (00/13) No match (V2 was not tested)
    09 [7fa19035] (00/12) No match (V2 was not tested)
    10 [fd9cda72] (00/13) No match (V2 was not tested)
    11 [5e3be668] (00/13) No match (V2 was not tested)
    12 [5fcb7e0b] (00/13) No match (V2 was not tested)
    13 [86a38ac2] (00/13) No match (V2 was not tested)
    14 [2fcfabfe] (00/12) No match (V2 was not tested)
    15 [c5fbecce] (00/12) No match (V2 was not tested)
    16 [1f313330] (00/13) No match (V2 was not tested)
    17 [4c227c88] (00/12) No match (V2 was not tested)
    18 [cfa2b625] (00/13) No match (V2 was not tested)
    19 [f2e05b21] (00/12) No match (V2 was not tested)
    20 [f4456bad] (00/12) No match (V2 was not tested)
    Offsetted by 212:
    01 [3333958a] (00/11) No match (V2 was not tested)
    02 [cc928060] (00/13) No match (V2 was not tested)
    03 [de8f87f7] (00/13) No match (V2 was not tested)
    04 [98a7ac60] (00/13) No match (V2 was not tested)
    05 [a6a0f2a7] (00/13) No match (V2 was not tested)
    06 [bc3822e9] (00/11) No match (V2 was not tested)
    07 [1790958e] (00/12) No match (V2 was not tested)
    08 [439ab50b] (00/13) No match (V2 was not tested)
    09 [e1cdbd59] (00/12) No match (V2 was not tested)
    10 [df751c7e] (00/13) No match (V2 was not tested)
    11 [bc6adb4f] (00/13) No match (V2 was not tested)
    12 [69f6a8a2] (00/13) No match (V2 was not tested)
    13 [72f778d9] (00/13) No match (V2 was not tested)
    14 [2aa88515] (00/12) No match (V2 was not tested)
    15 [fc46c368] (00/12) No match (V2 was not tested)
    16 [f645a3f2] (00/13) No match (V2 was not tested)
    17 [42396469] (00/12) No match (V2 was not tested)
    18 [3881b2d9] (00/13) No match (V2 was not tested)
    19 [ddd9c04a] (00/12) No match (V2 was not tested)
    20 [61f9c139] (00/12) No match (V2 was not tested)
    Track Peak [ CRC32 ] [W/O NULL] [ LOG ]
    -- 100,0 [762135BB] [6E6BC8C3] CRC32
    01 96,6 [D02B94EF] [B509427B]
    02 100,0 [9753FECE] [7BD3D309]
    03 75,6 [BD029882] [3F4BE68E]
    04 84,8 [618F1775] [64C578B6]
    05 71,0 [C4C68AE3] [D07694D4]
    06 23,2 [A16187C1] [ADC0189F]
    07 49,8 [85CCA68A] [3DB76123]
    08 69,2 [BF3A481D] [C7E1AE40]
    09 86,2 [DEDB296E] [384D8EF9]
    10 65,8 [4FA9556C] [48E55206]
    11 70,5 [1539CCF6] [DAA2A2A8]
    12 88,8 [82A9BAE1] [110B7338]
    13 68,6 [AC55878F] [266384BE]
    14 75,1 [E33BE081] [BB684C06]
    15 24,0 [10B18275] [DCC9D60B]
    16 66,6 [B9D9E4F9] [45D7509C]
    17 39,9 [B5930A4B] [60D7542E]
    18 73,4 [07227333] [CB40C87B]
    19 83,3 [19A44670] [936F6837]
    20 23,3 [1EFD7F0E] [5E0C99A4]

    CUE sheet

    TITLE "Gustav Mahler: Lieder und Gesänge aus der Jugendzeit"
    PERFORMER "Janet Baker"
    REM GENRE Classical
    REM DISCID 210D8314
    REM COMMENT "ExactAudioCopy v1.0b3"
    CATALOG 0000000000000
    FILE "Mahler. Lieder und Gesaenge aus Jugendzeit (Baker, Parsons).flac" WAVE
    TRACK 01 AUDIO
    TITLE "Lieder und Gesänge aus der Jugendzeit: Hans and Grete"
    PERFORMER "Janet Baker (mezzo-soprano), Jeoffrey Parsons (piano)"
    REM DATE 1983
    INDEX 01 00:00:00
    TRACK 02 AUDIO
    TITLE "Winterlied"
    PERFORMER "Janet Baker (mezzo-soprano), Jeoffrey Parsons (piano)"
    REM DATE 1983
    INDEX 01 02:24:20
    TRACK 03 AUDIO
    TITLE "Im Lenz"
    PERFORMER "Janet Baker (mezzo-soprano), Jeoffrey Parsons (piano)"
    REM DATE 1983
    INDEX 01 05:49:52
    TRACK 04 AUDIO
    TITLE "Lieder und Gesänge aus der Jugendzeit: Frühlingsmorgen"
    PERFORMER "Janet Baker (mezzo-soprano), Jeoffrey Parsons (piano)"
    REM DATE 1983
    INDEX 01 08:16:20
    TRACK 05 AUDIO
    TITLE "Lieder und Gesänge aus der Jugendzeit: Serenade aus «Don Juan»"
    PERFORMER "Janet Baker (mezzo-soprano), Jeoffrey Parsons (piano)"
    REM DATE 1983
    INDEX 01 09:47:25
    TRACK 06 AUDIO
    TITLE "Lieder und Gesänge aus der Jugendzeit: Ich ging mit Lust durch einen grünen Wald"
    PERFORMER "Janet Baker (mezzo-soprano), Jeoffrey Parsons (piano)"
    REM DATE 1983
    INDEX 01 12:02:12
    TRACK 07 AUDIO
    TITLE "Lieder und Gesänge aus der Jugendzeit: Starke Einbildungskraft"
    PERFORMER "Janet Baker (mezzo-soprano), Jeoffrey Parsons (piano)"
    REM DATE 1983
    INDEX 01 16:10:62
    TRACK 08 AUDIO
    TITLE "Lieder und Gesänge aus der Jugendzeit: Erinnerung"
    PERFORMER "Janet Baker (mezzo-soprano), Jeoffrey Parsons (piano)"
    REM DATE 1983
    INDEX 01 17:20:00
    TRACK 09 AUDIO
    TITLE "Lieder und Gesänge aus der Jugendzeit: Selbstgefühl"
    PERFORMER "Janet Baker (mezzo-soprano), Jeoffrey Parsons (piano)"
    REM DATE 1983
    INDEX 01 19:53:20
    TRACK 10 AUDIO
    TITLE "Lieder und Gesänge aus der Jugendzeit: Nicht weidersehen!"
    PERFORMER "Janet Baker (mezzo-soprano), Jeoffrey Parsons (piano)"
    REM DATE 1983
    INDEX 01 21:32:42
    TRACK 11 AUDIO
    TITLE "Lieder und Gesänge aus der Jugendzeit: Um schlimme Kinder artig zu machen"
    PERFORMER "Janet Baker (mezzo-soprano), Jeoffrey Parsons (piano)"
    REM DATE 1983
    INDEX 01 26:04:57
    TRACK 12 AUDIO
    TITLE "Lieder und Gesänge aus der Jugendzeit: Aus! Aus!"
    PERFORMER "Janet Baker (mezzo-soprano), Jeoffrey Parsons (piano)"
    REM DATE 1983
    INDEX 01 27:56:42
    TRACK 13 AUDIO
    TITLE "Lieder und Gesänge aus der Jugendzeit: Zu Strassburg auf der Schanz'"
    PERFORMER "Janet Baker (mezzo-soprano), Jeoffrey Parsons (piano)"
    REM DATE 1983
    INDEX 01 30:25:67
    TRACK 14 AUDIO
    TITLE "Lieder und Gesänge aus der Jugendzeit: Scheiden und Meiden"
    PERFORMER "Janet Baker (mezzo-soprano), Jeoffrey Parsons (piano)"
    REM DATE 1983
    INDEX 01 34:11:40
    TRACK 15 AUDIO
    TITLE "Lieder und Gesänge aus der Jugendzeit: Phantasie aus «Don Juan»"
    PERFORMER "Janet Baker (mezzo-soprano), Jeoffrey Parsons (piano)"
    REM DATE 1983
    INDEX 01 36:44:55
    TRACK 16 AUDIO
    TITLE "Lieder und Gesänge aus der Jugendzeit: Ablösung im Sommer"
    PERFORMER "Janet Baker (mezzo-soprano), Jeoffrey Parsons (piano)"
    REM DATE 1983
    INDEX 01 39:09:27
    TRACK 17 AUDIO
    TITLE "Lieder eines fahrenden Gesellen: I. Wenn mein Schatz Hochzeit macht"
    PERFORMER "Janet Baker (mezzo-soprano), Jeoffrey Parsons (piano)"
    REM DATE 1983
    INDEX 01 40:42:32
    TRACK 18 AUDIO
    TITLE "Lieder eines fahrenden Gesellen: II. Ging heut' morgen über's Feld"
    PERFORMER "Janet Baker (mezzo-soprano), Jeoffrey Parsons (piano)"
    REM DATE 1983
    INDEX 01 45:02:10
    TRACK 19 AUDIO
    TITLE "Lieder eines fahrenden Gesellen: III. Ich hab' ein glühend Messer"
    PERFORMER "Janet Baker (mezzo-soprano), Jeoffrey Parsons (piano)"
    REM DATE 1983
    INDEX 01 49:44:57
    TRACK 20 AUDIO
    TITLE "Lieder eines fahrenden Gesellen: IV. Die zwei blauen Augen von meinem Schatz"
    PERFORMER "Janet Baker (mezzo-soprano), Jeoffrey Parsons (piano)"
    REM DATE 1983
    INDEX 01 52:49:10
    -
    Gustav Mahler — каталог раздач на rutracker.orgВсе мои раздачи / All my releases



  • Показать сообщения:    

    Текущее время: 08-Дек 07:08

    Часовой пояс: UTC + 3


    Вы не можете начинать темы
    Вы не можете отвечать на сообщения
    Вы не можете редактировать свои сообщения
    Вы не можете удалять свои сообщения
    Вы не можете голосовать в опросах
    Вы не можете прикреплять файлы к сообщениям
    Вы не можете скачивать файлы