Музыкальная премия Радио Disney 2014 / Radio Disney Music Awards [2014 г., Pop, DVB]


Статистика раздачи [Обновить пиров]
Размер:  1.9 GB   |    Зарегистрирован:  8 месяцев 20 дней   |    Скачан:  0 раз

Полного источника не было: Никогда

Личеров:  3  [  0 KB/s  ]   Подробная статистика пиров
 
   
 
 
 

[Цитировать]

Музыкальная премия Радио Disney 2014 / Radio Disney Music Awards
Год выпуска: 2014 г.
Страна: США
Жанр: Pop
Продолжительность: 01:11:47
Перевод: Профессиональный (двухголосый закадровый)
Телеканал: Disney
Описание: Ежегодная музыкальная премия Радио Disney – это торжественное событие, на котором популярным молодым исполнителям вручаются награды в нескольких номинациях ...

скрытый текст

В Лос-Анджелесе состоялась церемония награждения музыкальной премией Radio Disney Music Awards.
Мероприятие проходило в Nokia Theatre и традиционно собрало множество селебритис. Среди звездных гостей церемонии Шакира, Келли Осборн, Джулиана Хав и другие.На красной дорожке знаменитости радовали отменным внешним видом. К примеру, 29-летняя Келли показала новую стрижку и «выгуляла» черно-белый наряд от Viktor and Rolf.Другие звезды, как Тимберлейк, больше блистали на сцене. Джастин, став исполнителем года, исполнил а капелла Thank You for Letting Be Myself, Again, добавив в композицию битбокса.
Список победителей RDMA-2014 выглядит следующим образом.
Лучшая музыкальная группа - One Direction;
Лучший исполнитель - Джастин Тимберлейк (Justin Timberlake);
Лучшая исполнительница - Деми Ловато (Demi Lovato);
Песня года - Come&Get It, Селена Гомес (Selena Gomez);
Прорыв года - Fifth Harmony.
Особую награду вручили 37-летней Шакире. Певицу отметили Hero Award за благотворительный вклад в развитие UNICEF, The ONE Campaign, Habitat For Humanity и прочих
Семпл: https://yadi.sk/i/hDF63GWxdjPGi
Качество видео: DVB
Формат видео: MPEG-PS
Видео: MPEG2 Video, 720x576 (4:3), 25 fps, 3500 kbps
Аудио: MPEG Audiо, 2 сh, 48 kHz, 192 kbps

MediaInfo

F:\Музыкальная премия Радио Disney 2014. (2014)_DVB by SLuMeP.mpg
General
Complete name : F:\Музыкальная премия Радио Disney 2014. (2014)_DVB by SLuMeP.mpg
Format : MPEG-PS
File size : 1.90 GiB
Duration : 1h 11mn
Overall bit rate mode : Variable
Overall bit rate : 3 798 Kbps
Video #224
ID : 224 (0xE0)
Format : MPEG Video
Format version : Version 2
Format profile : Main@Main
Format settings, BVOP : Yes
Format settings, Matrix : Custom
Format settings, GOP : Variable
Duration : 1h 11mn
Bit rate mode : Variable
Bit rate : 3 530 Kbps
Maximum bit rate : 15.0 Mbps
Width : 720 pixels
Height : 576 pixels
Display aspect ratio : 4:3
Frame rate : 25.000 fps
Standard : PAL
Color space : YUV
Chroma subsampling : 4:2:0
Bit depth : 8 bits
Scan type : Interlaced
Scan order : Top Field First
Compression mode : Lossy
Bits/(Pixel*Frame) : 0.340
Time code of first frame : 00:00:00:00
Time code source : Group of pictures header
Stream size : 1.77 GiB (93%)
Audio #192
ID : 192 (0xC0)
Format : MPEG Audio
Format version : Version 1
Format profile : Layer 2
Duration : 1h 11mn
Bit rate mode : Constant
Bit rate : 192 Kbps
Channel(s) : 2 channels
Sampling rate : 48.0 KHz
Compression mode : Lossy
Delay relative to video : 16ms
Stream size : 98.6 MiB (5%)

Скриншоты


[teatrix.ru].t19949.torrent 
Торрент: Зарегистрирован [ 2016-03-19 00:36 ] · DAB4CEB32AF937B714093B3ABDFCD80B42FCFE1D

Скачать .torrent

Скачать

20 KB

Статус: проверено
Скачан: 0 раз
Размер: 1.9 GB
terms.php



Быстрый ответ

Имя:

      
Для отправки сообщений необходимо включить JavaScript
Показать сообщения:    

Текущее время: 08-Дек 14:58

Часовой пояс: UTC + 3


Вы можете начинать темы
Вы можете отвечать на сообщения
Вы не можете редактировать свои сообщения
Вы не можете удалять свои сообщения
Вы не можете голосовать в опросах
Вы не можете прикреплять файлы к сообщениям
Вы можете скачивать файлы