Таинственный Гиппопотам (Владимир Кусов) [1983, сказка, SATRip] Центральный театр кукол


 

[Цитировать]

Таинственный Гиппопотам
Центральный театр кукол
Жанр: сказка
Год выпуска: 1983
Продолжительность: 00:55:29
Режиссёр: Владимир Кусов
В ролях: Леонид Бунин, Федор Виолин, Николай Алексахин, Сергей Мухин, Виктор Рябов, Евгений Началов, Екатерина Бабаева, Владимир Михитаров, Андрей Ярцев
Описание: Историю о необыкновенном путешествии Львенка Левы и Бегемотика Бори придумал драматург Владимир Лифшиц.
В одно прекрасное утро красивый и ловкий Львенок понял, что у него нет "настоящего друга". Разве неуклюжий и толстенький Бегемотик Боря может быть настоящим другом? Нет! Самым-самым может стать только "Таинственный Гиппопотам".
Узнав об этом, Львенок,– разрешив неуклюжему Бегемотику составить ему компанию,– отправился на поиски Гиппопотама.
Много разных приключений пришлось ему испытать.
И каждый раз на помощь приходил его обыкновенный друг – Бегемотик Боря.
В «Таинственном гиппопотаме» на сцене-ширме расцветают причудливые лианы и гигантские папоротники, танцуют деревья и цветы.
У каждого из персонажей – будь то Удав Устин, Мартышка или Ленивец – есть своя кукольная "изюминка".
Вступительное слово: Сергей Образцов
Релиз:
Семпл: https://www.mediafire.com/?mu5ustnsina2v67
Качество видео: SATRip
Формат видео: AVI
Видео: 720x544 (1.32:1), 25 fps, XviD MPEG-4 ~1617 kbps avg, 0.17 bit/pixel
Аудио: 48 kHz, MPEG Layer 3, 2 ch, ~128.00 kbps avg

MediaInfo

Полное имя : Tainstvennyi.gippopotam.1983.SATRip.fenixclub.avi
Формат : AVI
Формат/Информация : Audio Video Interleave
Размер файла : 697 Мбайт
Продолжительность : 55 м.
Общий поток : 1756 Кбит/сек
Программа кодирования : VirtualDubModRus 1.5.10.2 (build 2542/release)
Библиотека кодирования : VirtualDub build 32842/release
Видео
Идентификатор : 0
Формат : MPEG-4 Visual
Профиль формата : Advanced Simple@L5
Параметр BVOP формата : 2
Параметр QPel формата : Нет
Параметр GMC формата : Без точки перехода
Параметр матрицы формата : Default (H.263)
Режим смешивания : Сжатый битовый поток
Идентификатор кодека : XVID
Идентификатор кодека/Подсказка : XviD
Продолжительность : 55 м.
Битрейт : 1618 Кбит/сек
Ширина : 720 пикселей
Высота : 544 пикселя
Соотношение сторон : 4:3
Частота кадров : 25,000 кадров/сек
Цветовое пространство : YUV
Субдискретизация насыщенности : 4:2:0
Битовая глубина : 8 бит
Тип развёртки : Прогрессивная
Метод сжатия : С потерями
Бит/(Пиксели*Кадры) : 0.165
Размер потока : 642 Мбайт (92%)
Библиотека кодирования : XviD 1.2.1 (UTC 2008-12-04)
Аудио
Идентификатор : 1
Формат : MPEG Audio
Версия формата : Version 1
Профиль формата : Layer 3
Режим : Joint stereo
Расширение режима : MS Stereo
Идентификатор кодека : 55
Идентификатор кодека/Подсказка : MP3
Продолжительность : 55 м.
Вид битрейта : Постоянный
Битрейт : 128 Кбит/сек
Каналы : 2 канала
Частота : 48,0 КГц
Метод сжатия : С потерями
Размер потока : 50,8 Мбайт (7%)
Выравнивание : Разделение по промежуткам
Продолжительность промежутка : 40 мс. (1,00 видеокадр)
Время предзагрузки промежутка : 500 мс.

Скриншот с названием постановки

Скриншоты




Показать сообщения:    

Текущее время: 03-Дек 20:46

Часовой пояс: UTC + 3


Вы не можете начинать темы
Вы не можете отвечать на сообщения
Вы не можете редактировать свои сообщения
Вы не можете удалять свои сообщения
Вы не можете голосовать в опросах
Вы не можете прикреплять файлы к сообщениям
Вы не можете скачивать файлы