И. Кальман - Королева Чардаша (Новогодний гала-концерт из Оперного театра Земпера, Дрезден, 28.12.2014) / E. Kalman - Die Csardasfurstin (New Year's Eve Concert of the Staatskapelle Dresden) [2014, Оперетта, SATRip]


 

[Цитировать]

Имре Кальман - Королева Чардаша
(Новогодний гала-концерт из Оперного театра Земпера, Дрезден, 28.12.2014)

Emmerich Kálmán - Die Csárdásfürstin
(New Year's Eve Concert of the Staatskapelle Dresden)

Год выпуска: 2014
Страна: Германия
Производство: телеканал ZDF в сотрудничестве с Unitel и Дрезденской Штаатс капеллой
Жанр: Оперетта
Продолжительность: 01:43:40
Язык: Немецкий
Исполнители:
Анна Нетребко (Сильва), Хуан Диего Флорес (Эдвин), Кристина Ландсхамер (Стасси), Павол Бреслик (Бони), Себастьян Вартиг (Ферри), Берндт Цеттиш (Князь Леопольд), Холгер Штейнерт (Кисс)
Хор и оркестр Дрезденской Штаатс капеллы
Дирижер: Кристиан Тилеманн
Режиссер: Hannes Rossacher
Вступительное слово - Владимир Молчанов
Описание: Бурные овации стали наградой музыкантам и певцам новогоднего гала-концерта немецкого телеканала ZDF, съемки которого проходили вечером в воскресенье, 28 декабря, в знаменитой дрезденской Опере Земпера (Semperoper). Российская певица Анна Нетребко исполнила партию Сильвы Вареску из оперетты Имре Кальмана «Королева чардаша» («Сильва»).
Партнерами Анны Нетребко были звезды мировой величины: перуанский оперный певец Хуан Диего Флорес, немецкая исполнительница Кристина Ландсхамер, словацкий певец Павол Бреслик. Концерт проходил в сопровождении оркестра под управлением Кристиана Тилемана и хора Дрезденской Штаатс капеллы. В качестве почетного гостя в зале присутствовала Ивонна Кальман, дочь выдающегося венгерского композитора.
Трансляция концерта по телевидению состоялась сразу после его записи. В России этот уникальный концерт показал канал «Россия К».
«Королева чардаша» – одна из самых известных оперетт в мире. Российским театралам оперетта знакома под названием «Сильва». В основе сюжета – любовь звезды варьете Сильвы и князя Эдвина, возможная свадьба которых сильно напугала его родителей, аристократов с блестящей родословной. В этой оперетте есть все, что создает атмосферу праздника и волшебства в предновогодний вечер.
И в концертном исполнении «Королева чардаша» производит сильное впечатление. Особенно, если участвуют такие солисты, высокопрофессиональные хор и оркестр под управлением тонкого музыканта.

Музыкальные номера

01. Вступление
02. Выходная ария Сильвы с хором
03. Песенка Бони и Ферри
04. Венецианская баркарола
05. Первый дуэт Сильвы и Эдвина
06. Песенка Бони с дамами
07. Песня Сильвы с ансамблем
08. Финал I
09. Интродукция и хор
10. Дуэт Стасси и Эдвина
11. Второй дуэт Сильвы и Эдвина
12. Квартет Сильвы, Стасси, Бони и Эдвина
13. Дуэт Стасси и Бони
14. Третий дуэт Сильвы и Эдвина
15. Финал II
16. Терцет Сильвы, Бони и Ферри
17. Финал III
Доп. информация: Релиз киноклуба
За подготовку раздачи искренняя благодарность lesik689
Качество видео: SATRip
Формат/Контейнер: AVI
Видео кодек: XviD
Аудио кодек: AC3
Видео поток: 720x400 (1.80:1), 25 fps, XviD MPEG-4 ~1901 kbps avg, 0.26 bit/pixel
Аудио поток: 48 kHz, AC3 Dolby Digital, 2/0 (L,R) ch, ~256 kbps

MediaInfo

General
Complete name : D:\Public\E. Kalman - Die Csardasfurstin (New Year's Eve Concert of the Staatskapelle Dresden - 2014).avi
Format : AVI
Format/Info : Audio Video Interleave
File size : 1.57 GiB
Duration : 1h 43mn
Overall bit rate : 2 167 Kbps
Writing application : VirtualDubMod 1.5.10.2 (build 2542/release)
Writing library : VirtualDubMod build 2542/release
Video
ID : 0
Format : MPEG-4 Visual
Format profile : Advanced Simple@L5
Format settings, BVOP : 2
Format settings, QPel : No
Format settings, GMC : No warppoints
Format settings, Matrix : Default (MPEG)
Muxing mode : Packed bitstream
Codec ID : XVID
Codec ID/Hint : XviD
Duration : 1h 43mn
Bit rate : 1 902 Kbps
Width : 720 pixels
Height : 400 pixels
Display aspect ratio : 16:9
Frame rate : 25.000 fps
Color space : YUV
Chroma subsampling : 4:2:0
Bit depth : 8 bits
Scan type : Progressive
Compression mode : Lossy
Bits/(Pixel*Frame) : 0.264
Stream size : 1.38 GiB (88%)
Writing library : XviD 64
Audio
ID : 1
Format : AC-3
Format/Info : Audio Coding 3
Mode extension : CM (complete main)
Codec ID : 2000
Duration : 1h 43mn
Bit rate mode : Constant
Bit rate : 256 Kbps
Channel(s) : 2 channels
Channel positions : Front: L R
Sampling rate : 48.0 KHz
Bit depth : 16 bits
Compression mode : Lossy
Stream size : 190 MiB (12%)
Alignment : Aligned on interleaves
Interleave, duration : 40 ms (1.00 video frame)
Interleave, preload duration : 512 ms

Скриншоты




Показать сообщения:    

Текущее время: 04-Дек 02:56

Часовой пояс: UTC + 3


Вы не можете начинать темы
Вы не можете отвечать на сообщения
Вы не можете редактировать свои сообщения
Вы не можете удалять свои сообщения
Вы не можете голосовать в опросах
Вы не можете прикреплять файлы к сообщениям
Вы не можете скачивать файлы