[BR][OF] Bjorn Bolstad Skjelbred - Waves & Interruptions - 2014 (Classical)


Статистика раздачи [Обновить пиров]
Размер:  14.13 GB   |    Зарегистрирован:  8 месяцев 20 дней   |    Скачан:  0 раз

Полного источника не было: Никогда

 
   
 
 
 

[Цитировать]

Bjørn Bolstad Skjelbred
Waves & Interruptions
Жанр: Classical
Год релиза издания: 2014
Продолжительность: 01:12:30
Источник: HDClub
Треклист:
[01] Movements
[02] Recognizing The Undercurrent
[03] Still Waters...
[04] Lines In Motion, Entwined
[05] Nyx
[06] Waves & Interruptions
Качество: Blu-ray
Контейнер: BDMV
Видеокодек: MPEG-4 AVC
Аудиокодек: DTS-HD Master Audio | LPCM
BDInfo
Disc Title:     BJORN_BOLSTAD_SKJELBRED_WAVES_&_INTERRUPTIONS
Disc Size: 15 168 363 959 bytes
Protection: AACS
BD-Java: Yes
BDInfo: 0.5.8
Notes:
BDINFO HOME:
Cinema Squid
http://www.cinemasquid.com/blu-ray/tools/bdinfo
INCLUDES FORUMS REPORT FOR:
AVS Forum Blu-ray Audio and Video Specifications Thread
http://www.avsforum.com/avs-vb/showthread.php?t=1155731
********************
PLAYLIST: 00000.MPLS
********************
<--- BEGIN FORUMS PASTE --->
Total   Video
Title                                                           Codec   Length  Movie Size      Disc Size       Bitrate Bitrate Main Audio Track                          Secondary Audio Track
-----                                                           ------  ------- --------------  --------------  ------- ------- ------------------                        ---------------------
00000.MPLS                                                      AVC     1:12:30 11 582 263 296  15 168 363 959  21.30   0.95    DTS-HD Master 5.1 9757Kbps (192kHz/24-bit)LPCM 2.0 9216Kbps (192kHz/24-bit)
DISC INFO:
[br]
Disc Title:     BJORN_BOLSTAD_SKJELBRED_WAVES_&_INTERRUPTIONS
Disc Size:      15 168 363 959 bytes
Protection:     AACS
BD-Java:        Yes
BDInfo:         0.5.8
[br]
PLAYLIST REPORT:
[br]
Name:                   00000.MPLS
Length:                 1:12:30.079 (h:m:s.ms)
Size:                   11 582 263 296 bytes
Total Bitrate:          21.30 Mbps
[br]
VIDEO:
[br]
Codec                   Bitrate             Description
-----                   -------             -----------
MPEG-4 AVC Video        950 kbps            1080i / 29.970 fps / 16:9 / High Profile 4.1
[br]
AUDIO:
[br]
Codec                           Language        Bitrate         Description
-----                           --------        -------         -----------
DTS-HD Master Audio             English         9757 kbps       5.1 / 192 kHz / 9757 kbps / 24-bit (DTS Core: 5.1 / 48 kHz / 1509 kbps / 24-bit)
LPCM Audio                      English         9216 kbps       2.0 / 192 kHz / 9216 kbps / 24-bit
[br]
FILES:
[br]
Name            Time In         Length          Size            Total Bitrate
----            -------         ------          ----            -------------
00000.M2TS      0:00:00.000     1:12:30.079     11 582 263 296  21 300
[br]
CHAPTERS:
[br]
Number          Time In         Length          Avg Video Rate  Max 1-Sec Rate  Max 1-Sec Time  Max 5-Sec Rate  Max 5-Sec Time  Max 10Sec Rate  Max 10Sec Time  Avg Frame Size  Max Frame Size  Max Frame Time
------          -------         ------          --------------  --------------  --------------  --------------  --------------  --------------  --------------  --------------  --------------  --------------
1               0:00:00.000     0:14:15.888     950 kbps        1 302 kbps      00:14:14.353    1 021 kbps      00:14:10.349    985 kbps        00:14:05.344    3 962 bytes     89 946 bytes    00:00:00.967
2               0:14:15.888     0:10:32.565     950 kbps        1 627 kbps      00:24:46.451    1 085 kbps      00:24:42.447    1 018 kbps      00:24:37.442    3 962 bytes     89 947 bytes    00:14:16.855
3               0:24:48.453     0:09:14.353     950 kbps        1 584 kbps      00:34:00.905    1 077 kbps      00:33:56.901    1 013 kbps      00:33:51.896    3 962 bytes     89 947 bytes    00:24:49.421
4               0:34:02.807     0:15:35.000     950 kbps        960 kbps        00:34:02.840    952 kbps        00:34:02.840    951 kbps        00:34:02.840    3 962 bytes     89 946 bytes    00:34:03.775
5               0:49:37.808     0:09:48.587     950 kbps        950 kbps        00:49:37.808    950 kbps        00:49:37.808    950 kbps        00:49:37.808    3 962 bytes     88 645 bytes    00:49:38.709
6               0:59:26.396     0:13:03.682     950 kbps        1 627 kbps      01:12:28.043    1 085 kbps      01:12:25.040    1 018 kbps      01:12:20.035    3 963 bytes     88 649 bytes    01:12:30.045
<---- END FORUMS PASTE ---->
********************
PLAYLIST: 00001.MPLS
********************
<--- BEGIN FORUMS PASTE --->
Total   Video
Title                                                           Codec   Length  Movie Size      Disc Size       Bitrate Bitrate Main Audio Track                          Secondary Audio Track
-----                                                           ------  ------- --------------  --------------  ------- ------- ------------------                        ---------------------
00001.MPLS                                                      AVC     0:11:55 3 583 875 072   15 168 363 959  40.10   19.98   DTS-HD Master 5.1 8726Kbps (192kHz/24-bit)LPCM 2.0 9216Kbps (192kHz/24-bit)
DISC INFO:
[br]
Disc Title:     BJORN_BOLSTAD_SKJELBRED_WAVES_&_INTERRUPTIONS
Disc Size:      15 168 363 959 bytes
Protection:     AACS
BD-Java:        Yes
BDInfo:         0.5.8
[br]
PLAYLIST REPORT:
[br]
Name:                   00001.MPLS
Length:                 0:11:55.014 (h:m:s.ms)
Size:                   3 583 875 072 bytes
Total Bitrate:          40.10 Mbps
[br]
VIDEO:
[br]
Codec                   Bitrate             Description
-----                   -------             -----------
MPEG-4 AVC Video        19981 kbps          1080i / 29.970 fps / 16:9 / High Profile 4.1
[br]
AUDIO:
[br]
Codec                           Language        Bitrate         Description
-----                           --------        -------         -----------
DTS-HD Master Audio             English         8726 kbps       5.1 / 192 kHz / 8726 kbps / 24-bit (DTS Core: 5.1 / 48 kHz / 1509 kbps / 24-bit)
LPCM Audio                      English         9216 kbps       2.0 / 192 kHz / 9216 kbps / 24-bit
[br]
FILES:
[br]
Name            Time In         Length          Size            Total Bitrate
----            -------         ------          ----            -------------
00001.M2TS      0:00:00.000     0:11:54.680     3 583 825 920   40 117
00002.M2TS      0:11:54.680     0:00:00.333     49 152          1 178
[br]
CHAPTERS:
[br]
Number          Time In         Length          Avg Video Rate  Max 1-Sec Rate  Max 1-Sec Time  Max 5-Sec Rate  Max 5-Sec Time  Max 10Sec Rate  Max 10Sec Time  Avg Frame Size  Max Frame Size  Max Frame Time
------          -------         ------          --------------  --------------  --------------  --------------  --------------  --------------  --------------  --------------  --------------  --------------
1               0:00:00.000     0:11:55.014     19 981 kbps     29 972 kbps     00:02:02.856    28 587 kbps     00:02:00.854    28 049 kbps     00:02:00.653    83 336 bytes    306 325 bytes   00:02:09.696
<---- END FORUMS PASTE ---->
[teatrix.ru].t19953.torrent 
Торрент: Зарегистрирован [ 2016-03-19 00:12 ] · 477068B850375E9B4B77A87835344E0F4F3CE7D1

Скачать .torrent

Скачать

38 KB

Статус: проверено
Скачан: 0 раз
Размер: 14.13 GB
terms.php



Быстрый ответ

Имя:

      
Для отправки сообщений необходимо включить JavaScript
Показать сообщения:    

Текущее время: 08-Дек 14:53

Часовой пояс: UTC + 3


Вы можете начинать темы
Вы можете отвечать на сообщения
Вы не можете редактировать свои сообщения
Вы не можете удалять свои сообщения
Вы не можете голосовать в опросах
Вы не можете прикреплять файлы к сообщениям
Вы можете скачивать файлы