(Opera / Classical) Giacomo Puccini - La Boheme (Gigli, Albanese, Poli, Menotti; Berrettoni) - 2001 (1938), FLAC (tracks+.cue) lossless


 

[Цитировать]

Giacomo Puccini - La Boheme (Gigli, Albanese, Poli, Menotti; Berrettoni)
Жанр: Opera / Classical
Год издания диска: 2001
Издатель (лейбл): Naxos Historical
Номер по каталогу: 8.110072-73
Дата записи: 1938
Аудиокодек: FLAC
Тип рипа: tracks+.cue
Битрейт аудио: lossless
Продолжительность: 2:12:44
Источник: скачано с
сайт-источник/ник/другое: what.cd
Наличие сканов в содержимом раздачи: да

Треклист

CD1:
01. Questo Mar Rosso (4:20) [401 Kb/s]
02. Pensier profondo! (1:19) [387 Kb/s]
03. Legna! Sigari! (3:36) [397 Kb/s]
04. Si puo? Chi e la (5:08) [393 Kb/s]
05. Lo resto per terminar (0:58) [380 Kb/s]
06. Non sono in vena Scusi (2:25) [379 Kb/s]
07. Oh! sventata, sventata! (1:27) [397 Kb/s]
08. Che gelida manina (4:43) [403 Kb/s]
09. Si. Mi chiamano Mimi (4:25) [404 Kb/s]
10. Ehi! Rodolfo! (0:41) [387 Kb/s]
11. O soave fanciulla (3:42) [397 Kb/s]
12. Aranci, datteri! (2:33) [378 Kb/s]
13. Chi guardu? (3:19) [374 Kb/s]
14. Viva Parpignol! (2:52) [383 Kb/s]
15. Domandatelo a me (2:31) [371 Kb/s]
16. Quando me'n vo'soletta (4:21) [396 Kb/s]
17. Chi l'ha richiesto (2:17) [382 Kb/s]
18. Ohe, la, le guardie Aprite! (3:16) [373 Kb/s]
19. Sa dirmi, scusi, qual'e l'osteria (1:23) [374 Kb/s]
20. Mimi?! Speravo di trovarvi qui (4:35) [389 Kb/s]
21. Marcello. Finalmente (1:37) [390 Kb/s]
22. Mimi e una civetta (1:20) [403 Kb/s]
23. Mimi e tanto malata! (2:48) [406 Kb/s]
24. Addio Donde lieta usci al tuo grido (3:13) [383 Kb/s]
25. Dunque e proprio finita (4:58) [404 Kb/s]
CD2:
01. In un coupe? (1:23) [371 Kb/s]
02. O Mimì, tu più non torni (5:15) [381 Kb/s]
03. Gavotta (1:41) [386 Kb/s]
04. C'è Mimì . . . C'è Mimì (5:44) [390 Kb/s]
05. Vecchia zimarra . . . (2:10) [377 Kb/s]
06. Sono andati? Fingevo di dormire (6:12) [383 Kb/s]
07. Dorme? . . . Riposa (4:41) [373 Kb/s]
08. Adriana Lecouvreur - Io son l'umile ancella (3:36) [399 Kb/s]
09. Manon Lescaut - In quelle trine morbide (2:39) [399 Kb/s]
10. Madama Butterfly - Un bel dì vedremo (4:30) [400 Kb/s]
11. Turandot - Signore, ascolta! (2:37) [401 Kb/s]
12. Turandot - Tu che di gel sei cinta (2:50) [402 Kb/s]
13. Tuo Mi Chiami (3:46) [416 Kb/s]
14. Ninna-Nanna a Liana (3:20) [393 Kb/s]
15. Giro-Tondo (2:43) [390 Kb/s]
16. Dicitencello Vuje (3:29) [400 Kb/s]
17. Colombetta (2:20) [394 Kb/s]
Исполнители:
Rodolfo - Beniamino Gigli
Mimi - Licia Albanese
Marcello - Afro Poli
Musetta - Tatiana Menotti
Colline - Duilio Baronti
Schaunard - Aristide Baracchi
Conductor - Umberto Berrettoni
La Scala Opera Chorus and Orchestra

Лог создания рипа

CD1

X Lossless Decoder version 20140504 (147.0)
XLD extraction logfile from 2014-06-03 09:22:25 -0700
Albanese, Gigli, Menotti, Poli, Baronti, Baracchi - BERRETTONI; La Scala Feb, 1938 / La Bohème (Berrettoni) 1
Used drive : OPTIARC DVD RW AD-5970H (revision 3AP9)
Media type : Pressed CD
Ripper mode : XLD Secure Ripper
Disable audio cache : OK for the drive with a cache less than 1375KiB
Make use of C2 pointers : NO
Read offset correction : 48
Max retry count : 20
Gap status : Analyzed, Appended (except HTOA)
TOC of the extracted CD
Track | Start | Length | Start sector | End sector
---------------------------------------------------------
1 | 00:00:00 | 04:20:17 | 0 | 19516
2 | 04:20:17 | 01:19:30 | 19517 | 25471
3 | 05:39:47 | 03:35:55 | 25472 | 41651
4 | 09:15:27 | 05:07:38 | 41652 | 64714
5 | 14:22:65 | 00:58:17 | 64715 | 69081
6 | 15:21:07 | 02:25:15 | 69082 | 79971
7 | 17:46:22 | 01:26:38 | 79972 | 86459
8 | 19:12:60 | 04:42:40 | 86460 | 107649
9 | 23:55:25 | 04:24:45 | 107650 | 127494
10 | 28:19:70 | 00:40:45 | 127495 | 130539
11 | 29:00:40 | 03:42:20 | 130540 | 147209
12 | 32:42:60 | 02:32:55 | 147210 | 158664
13 | 35:15:40 | 03:18:47 | 158665 | 173561
14 | 38:34:12 | 02:52:13 | 173562 | 186474
15 | 41:26:25 | 02:30:60 | 186475 | 197784
16 | 43:57:10 | 04:21:37 | 197785 | 217396
17 | 48:18:47 | 02:17:35 | 217397 | 227706
18 | 50:36:07 | 03:16:35 | 227707 | 242441
19 | 53:52:42 | 01:22:73 | 242442 | 248664
20 | 55:15:40 | 04:34:45 | 248665 | 269259
21 | 59:50:10 | 01:37:32 | 269260 | 276566
22 | 61:27:42 | 01:20:05 | 276567 | 282571
23 | 62:47:47 | 02:48:33 | 282572 | 295204
24 | 65:36:05 | 03:13:07 | 295205 | 309686
25 | 68:49:12 | 04:57:63 | 309687 | 332024
AccurateRip Summary (DiscID: 0041e253-049aa6ac-74114b19)
Track 01 : NG (total 3 submissions)
Track 02 : NG (total 3 submissions)
Track 03 : NG (total 3 submissions)
Track 04 : NG (total 3 submissions)
Track 05 : NG (total 3 submissions)
Track 06 : NG (total 3 submissions)
Track 07 : NG (total 3 submissions)
Track 08 : NG (total 3 submissions)
Track 09 : NG (total 3 submissions)
Track 10 : NG (total 3 submissions)
Track 11 : NG (total 3 submissions)
Track 12 : NG (total 2 submissions)
Track 13 : NG (total 3 submissions)
Track 14 : NG (total 3 submissions)
Track 15 : NG (total 3 submissions)
Track 16 : NG (total 3 submissions)
Track 17 : NG (total 3 submissions)
Track 18 : NG (total 3 submissions)
Track 19 : NG (total 3 submissions)
Track 20 : NG (total 3 submissions)
Track 21 : NG (total 3 submissions)
Track 22 : NG (total 3 submissions)
Track 23 : NG (total 3 submissions)
Track 24 : NG (total 3 submissions)
Track 25 : NG (total 3 submissions)
->0 track accurately ripped, 25 tracks not
All Tracks
Album gain : -0.19 dB
Peak : 0.839905
Statistics
Read error : 0
Jitter error (maybe fixed) : 0
Retry sector count : 0
Damaged sector count : 0
Track 01
Filename : /Volumes/wd mac/xld/puccini/01 - Questo Mar Rosso.flac
Pre-gap length : 00:02:00
Track gain : 0.14 dB
Peak : 0.736786
CRC32 hash (test run) : 930177AF
CRC32 hash : 930177AF
CRC32 hash (skip zero) : 897AF7C9
AccurateRip v1 signature : F77FF743
AccurateRip v2 signature : 7618FEEA
->Rip may not be accurate (total 3 submissions).
Statistics
Read error : 0
Jitter error (maybe fixed) : 0
Retry sector count : 0
Damaged sector count : 0
Track 02
Filename : /Volumes/wd mac/xld/puccini/02 - Pensier profondo!.flac
Track gain : 1.60 dB
Peak : 0.663910
CRC32 hash (test run) : 78A6684E
CRC32 hash : 78A6684E
CRC32 hash (skip zero) : 4CB9573F
AccurateRip v1 signature : BC3DE2F1
AccurateRip v2 signature : 39DF21C8
->Rip may not be accurate (total 3 submissions).
Statistics
Read error : 0
Jitter error (maybe fixed) : 0
Retry sector count : 0
Damaged sector count : 0
Track 03
Filename : /Volumes/wd mac/xld/puccini/03 - Legna! Sigari!.flac
Track gain : 1.55 dB
Peak : 0.801697
CRC32 hash (test run) : A276E652
CRC32 hash : A276E652
CRC32 hash (skip zero) : 8FB0587D
AccurateRip v1 signature : 83576473
AccurateRip v2 signature : 5A964101
->Rip may not be accurate (total 3 submissions).
Statistics
Read error : 0
Jitter error (maybe fixed) : 0
Retry sector count : 0
Damaged sector count : 0
Track 04
Filename : /Volumes/wd mac/xld/puccini/04 - Si puo? Chi e la.flac
Track gain : 1.53 dB
Peak : 0.765747
CRC32 hash (test run) : FAF2779C
CRC32 hash : FAF2779C
CRC32 hash (skip zero) : C4AA72B4
AccurateRip v1 signature : 6352698F
AccurateRip v2 signature : 253DFD3D
->Rip may not be accurate (total 3 submissions).
Statistics
Read error : 0
Jitter error (maybe fixed) : 0
Retry sector count : 0
Damaged sector count : 0
Track 05
Filename : /Volumes/wd mac/xld/puccini/05 - Lo resto per terminar.flac
Track gain : 3.82 dB
Peak : 0.685181
CRC32 hash (test run) : A732F16E
CRC32 hash : A732F16E
CRC32 hash (skip zero) : CDBCF019
AccurateRip v1 signature : 8011B46B
AccurateRip v2 signature : C0B0F7D0
->Rip may not be accurate (total 3 submissions).
Statistics
Read error : 0
Jitter error (maybe fixed) : 0
Retry sector count : 0
Damaged sector count : 0
Track 06
Filename : /Volumes/wd mac/xld/puccini/06 - Non sono in vena Scusi.flac
Track gain : 6.89 dB
Peak : 0.404877
CRC32 hash (test run) : D9A69D2F
CRC32 hash : D9A69D2F
CRC32 hash (skip zero) : 6F17DC97
AccurateRip v1 signature : 4D1E89DE
AccurateRip v2 signature : 042AE462
->Rip may not be accurate (total 3 submissions).
Statistics
Read error : 0
Jitter error (maybe fixed) : 0
Retry sector count : 0
Damaged sector count : 0
Track 07
Filename : /Volumes/wd mac/xld/puccini/07 - Oh! sventata, sventata!.flac
Track gain : 0.22 dB
Peak : 0.617706
CRC32 hash (test run) : DBDCCF99
CRC32 hash : DBDCCF99
CRC32 hash (skip zero) : 0B9277D0
AccurateRip v1 signature : 76E407C2
AccurateRip v2 signature : 978F86BD
->Rip may not be accurate (total 3 submissions).
Statistics
Read error : 0
Jitter error (maybe fixed) : 0
Retry sector count : 0
Damaged sector count : 0
Track 08
Filename : /Volumes/wd mac/xld/puccini/08 - Che gelida manina.flac
Track gain : -1.10 dB
Peak : 0.565216
CRC32 hash (test run) : 89848797
CRC32 hash : 89848797
CRC32 hash (skip zero) : BE160CA9
AccurateRip v1 signature : 6545D2BE
AccurateRip v2 signature : C2DA2C4A
->Rip may not be accurate (total 3 submissions).
Statistics
Read error : 0
Jitter error (maybe fixed) : 0
Retry sector count : 0
Damaged sector count : 0
Track 09
Filename : /Volumes/wd mac/xld/puccini/09 - Si. Mi chiamano Mimi.flac
Track gain : -1.78 dB
Peak : 0.839905
CRC32 hash (test run) : 2EBA95A9
CRC32 hash : 2EBA95A9
CRC32 hash (skip zero) : 7B4DFFA4
AccurateRip v1 signature : D7DED5CE
AccurateRip v2 signature : CCDEF925
->Rip may not be accurate (total 3 submissions).
Statistics
Read error : 0
Jitter error (maybe fixed) : 0
Retry sector count : 0
Damaged sector count : 0
Track 10
Filename : /Volumes/wd mac/xld/puccini/10 - Ehi! Rodolfo!.flac
Track gain : 4.86 dB
Peak : 0.409027
CRC32 hash (test run) : 05F02602
CRC32 hash : 05F02602
CRC32 hash (skip zero) : CCE1F669
AccurateRip v1 signature : 2AF7535F
AccurateRip v2 signature : 8F5D4FF2
->Rip may not be accurate (total 3 submissions).
Statistics
Read error : 0
Jitter error (maybe fixed) : 0
Retry sector count : 0
Damaged sector count : 0
Track 11
Filename : /Volumes/wd mac/xld/puccini/11 - O soave fanciulla.flac
Track gain : -1.52 dB
Peak : 0.664764
CRC32 hash (test run) : DF7142C7
CRC32 hash : DF7142C7
CRC32 hash (skip zero) : 8BE98BF2
AccurateRip v1 signature : 99F7BC1E
AccurateRip v2 signature : BF60FF36
->Rip may not be accurate (total 3 submissions).
Statistics
Read error : 0
Jitter error (maybe fixed) : 0
Retry sector count : 0
Damaged sector count : 0
Track 12
Filename : /Volumes/wd mac/xld/puccini/12 - Aranci, datteri!.flac
Pre-gap length : 00:07:00
Track gain : 1.93 dB
Peak : 0.825714
CRC32 hash (test run) : 5FB1EBAB
CRC32 hash : 5FB1EBAB
CRC32 hash (skip zero) : 6188D1F9
AccurateRip v1 signature : 81740094
AccurateRip v2 signature : 9BCD2C3E
->Rip may not be accurate (total 2 submissions).
Statistics
Read error : 0
Jitter error (maybe fixed) : 0
Retry sector count : 0
Damaged sector count : 0
Track 13
Filename : /Volumes/wd mac/xld/puccini/13 - Chi guardu?.flac
Track gain : 2.41 dB
Peak : 0.711426
CRC32 hash (test run) : BC7FD90C
CRC32 hash : BC7FD90C
CRC32 hash (skip zero) : 81F00B77
AccurateRip v1 signature : D1F69BC8
AccurateRip v2 signature : 7FA87CFC
->Rip may not be accurate (total 3 submissions).
Statistics
Read error : 0
Jitter error (maybe fixed) : 0
Retry sector count : 0
Damaged sector count : 0
Track 14
Filename : /Volumes/wd mac/xld/puccini/14 - Viva Parpignol!.flac
Track gain : 1.67 dB
Peak : 0.475891
CRC32 hash (test run) : 8247B95B
CRC32 hash : 8247B95B
CRC32 hash (skip zero) : ABF646BD
AccurateRip v1 signature : 2EF81BFA
AccurateRip v2 signature : 0B66BE9C
->Rip may not be accurate (total 3 submissions).
Statistics
Read error : 0
Jitter error (maybe fixed) : 0
Retry sector count : 0
Damaged sector count : 0
Track 15
Filename : /Volumes/wd mac/xld/puccini/15 - Domandatelo a me.flac
Track gain : 3.56 dB
Peak : 0.498169
CRC32 hash (test run) : 74988F4F
CRC32 hash : 74988F4F
CRC32 hash (skip zero) : 1B79A961
AccurateRip v1 signature : 4137A306
AccurateRip v2 signature : 15D5541D
->Rip may not be accurate (total 3 submissions).
Statistics
Read error : 0
Jitter error (maybe fixed) : 0
Retry sector count : 0
Damaged sector count : 0
Track 16
Filename : /Volumes/wd mac/xld/puccini/16 - Quando me'n vo'soletta.flac
Track gain : -1.61 dB
Peak : 0.747009
CRC32 hash (test run) : 58982CD7
CRC32 hash : 58982CD7
CRC32 hash (skip zero) : 64A8BBDE
AccurateRip v1 signature : B23A46BA
AccurateRip v2 signature : 77884987
->Rip may not be accurate (total 3 submissions).
Statistics
Read error : 0
Jitter error (maybe fixed) : 0
Retry sector count : 0
Damaged sector count : 0
Track 17
Filename : /Volumes/wd mac/xld/puccini/17 - Chi l'ha richiesto.flac
Track gain : -1.51 dB
Peak : 0.831390
CRC32 hash (test run) : 0151520A
CRC32 hash : 0151520A
CRC32 hash (skip zero) : AA34A26E
AccurateRip v1 signature : 6347220C
AccurateRip v2 signature : 8BD6E54E
->Rip may not be accurate (total 3 submissions).
Statistics
Read error : 0
Jitter error (maybe fixed) : 0
Retry sector count : 0
Damaged sector count : 0
Track 18
Filename : /Volumes/wd mac/xld/puccini/18 - Ohe, la, le guardie Aprite!.flac
Pre-gap length : 00:06:25
Track gain : 13.12 dB
Peak : 0.370667
CRC32 hash (test run) : 4D104EA7
CRC32 hash : 4D104EA7
CRC32 hash (skip zero) : F5D8106A
AccurateRip v1 signature : 9255CFBB
AccurateRip v2 signature : 2CD5673D
->Rip may not be accurate (total 3 submissions).
Statistics
Read error : 0
Jitter error (maybe fixed) : 0
Retry sector count : 0
Damaged sector count : 0
Track 19
Filename : /Volumes/wd mac/xld/puccini/19 - Sa dirmi, scusi, qual'e l'osteria.flac
Track gain : 8.94 dB
Peak : 0.366394
CRC32 hash (test run) : 352F8A67
CRC32 hash : 352F8A67
CRC32 hash (skip zero) : D980061B
AccurateRip v1 signature : 4413B8C2
AccurateRip v2 signature : 623D4010
->Rip may not be accurate (total 3 submissions).
Statistics
Read error : 0
Jitter error (maybe fixed) : 0
Retry sector count : 0
Damaged sector count : 0
Track 20
Filename : /Volumes/wd mac/xld/puccini/20 - Mimi?! Speravo di trovarvi qui.flac
Track gain : 1.02 dB
Peak : 0.605865
CRC32 hash (test run) : 28F72189
CRC32 hash : 28F72189
CRC32 hash (skip zero) : F537690A
AccurateRip v1 signature : 4B97B877
AccurateRip v2 signature : 95ED46A0
->Rip may not be accurate (total 3 submissions).
Statistics
Read error : 0
Jitter error (maybe fixed) : 0
Retry sector count : 0
Damaged sector count : 0
Track 21
Filename : /Volumes/wd mac/xld/puccini/21 - Marcello. Finalmente.flac
Track gain : -1.13 dB
Peak : 0.664398
CRC32 hash (test run) : C315C2B1
CRC32 hash : C315C2B1
CRC32 hash (skip zero) : ED70F7A9
AccurateRip v1 signature : 86E76030
AccurateRip v2 signature : 25E04A2E
->Rip may not be accurate (total 3 submissions).
Statistics
Read error : 0
Jitter error (maybe fixed) : 0
Retry sector count : 0
Damaged sector count : 0
Track 22
Filename : /Volumes/wd mac/xld/puccini/22 - Mimi e una civetta.flac
Track gain : -1.62 dB
Peak : 0.764648
CRC32 hash (test run) : 10ECCB11
CRC32 hash : 10ECCB11
CRC32 hash (skip zero) : 5B43F85D
AccurateRip v1 signature : 691DE0E6
AccurateRip v2 signature : 943FD5AB
->Rip may not be accurate (total 3 submissions).
Statistics
Read error : 0
Jitter error (maybe fixed) : 0
Retry sector count : 0
Damaged sector count : 0
Track 23
Filename : /Volumes/wd mac/xld/puccini/23 - Mimi e tanto malata!.flac
Track gain : -1.00 dB
Peak : 0.632111
CRC32 hash (test run) : 383C9CC0
CRC32 hash : 383C9CC0
CRC32 hash (skip zero) : 8339CDCB
AccurateRip v1 signature : CA506D06
AccurateRip v2 signature : 1D040503
->Rip may not be accurate (total 3 submissions).
Statistics
Read error : 0
Jitter error (maybe fixed) : 0
Retry sector count : 0
Damaged sector count : 0
Track 24
Filename : /Volumes/wd mac/xld/puccini/24 - Addio Donde lieta usci al tuo grido.flac
Track gain : -1.86 dB
Peak : 0.611542
CRC32 hash (test run) : A51C13FC
CRC32 hash : A51C13FC
CRC32 hash (skip zero) : A0C0B2EB
AccurateRip v1 signature : 0C75F75D
AccurateRip v2 signature : 0574CC20
->Rip may not be accurate (total 3 submissions).
Statistics
Read error : 0
Jitter error (maybe fixed) : 0
Retry sector count : 0
Damaged sector count : 0
Track 25
Filename : /Volumes/wd mac/xld/puccini/25 - Dunque e proprio finita.flac
Track gain : -1.82 dB
Peak : 0.767792
CRC32 hash (test run) : 5036B81F
CRC32 hash : 5036B81F
CRC32 hash (skip zero) : 0F09E50C
AccurateRip v1 signature : 8B45E453
AccurateRip v2 signature : B2E80B7E
->Rip may not be accurate (total 3 submissions).
Statistics
Read error : 0
Jitter error (maybe fixed) : 0
Retry sector count : 0
Damaged sector count : 0
No errors occurred
End of status report
-----BEGIN XLD SIGNATURE-----
Bw7wax1rt0K6k3Gemq9aNJRdNjnVu0iTu6D9cDTgq1YTQ.mxJ9xw3kVoXmbqpDJkxxenS5666EKJbmOVIBwhL6WaJ_RlBdCRknke6fC
-----END XLD SIGNATURE-----

CD2

X Lossless Decoder version 20140504 (147.0)
XLD extraction logfile from 2014-06-03 10:07:25 -0700
La Scala Opera Corus and Orchestra - Umberto Berrettoni, conducting / La Bohème (Berrettoni) 2
Used drive : OPTIARC DVD RW AD-5970H (revision 3AP9)
Media type : Pressed CD
Ripper mode : XLD Secure Ripper
Disable audio cache : OK for the drive with a cache less than 1375KiB
Make use of C2 pointers : NO
Read offset correction : 48
Max retry count : 20
Gap status : Analyzed, Appended (except HTOA)
TOC of the extracted CD
Track | Start | Length | Start sector | End sector
---------------------------------------------------------
1 | 00:00:00 | 01:22:65 | 0 | 6214
2 | 01:22:65 | 05:15:05 | 6215 | 29844
3 | 06:37:70 | 01:40:52 | 29845 | 37396
4 | 08:18:47 | 05:44:18 | 37397 | 63214
5 | 14:02:65 | 02:10:07 | 63215 | 72971
6 | 16:12:72 | 06:12:23 | 72972 | 100894
7 | 22:25:20 | 04:40:50 | 100895 | 121944
8 | 27:05:70 | 03:36:35 | 121945 | 138179
9 | 30:42:30 | 02:38:42 | 138180 | 150071
10 | 33:20:72 | 04:30:23 | 150072 | 170344
11 | 37:51:20 | 02:37:32 | 170345 | 182151
12 | 40:28:52 | 02:50:18 | 182152 | 194919
13 | 43:18:70 | 03:45:45 | 194920 | 211839
14 | 47:04:40 | 03:20:32 | 211840 | 226871
15 | 50:24:72 | 02:42:60 | 226872 | 239081
16 | 53:07:57 | 03:29:28 | 239082 | 254784
17 | 56:37:10 | 02:19:65 | 254785 | 265274
AccurateRip Summary (DiscID: 0025a0d7-01ddfdd4-e90dd111)
Track 01 : NG (total 3 submissions)
Track 02 : NG (total 3 submissions)
Track 03 : NG (total 3 submissions)
Track 04 : NG (total 3 submissions)
Track 05 : NG (total 3 submissions)
Track 06 : NG (total 3 submissions)
Track 07 : NG (total 3 submissions)
Track 08 : NG (total 3 submissions)
Track 09 : NG (total 3 submissions)
Track 10 : NG (total 3 submissions)
Track 11 : NG (total 3 submissions)
Track 12 : NG (total 3 submissions)
Track 13 : NG (total 3 submissions)
Track 14 : NG (total 3 submissions)
Track 15 : NG (total 3 submissions)
Track 16 : NG (total 3 submissions)
Track 17 : NG (total 3 submissions)
->0 track accurately ripped, 17 tracks not
All Tracks
Album gain : 1.35 dB
Peak : 0.816559
Statistics
Read error : 0
Jitter error (maybe fixed) : 0
Retry sector count : 0
Damaged sector count : 0
Track 01
Filename : /Volumes/wd mac/xld/Disc 2/01 - In un coupe?.flac
Pre-gap length : 00:02:00
Track gain : 5.23 dB
Peak : 0.523499
CRC32 hash (test run) : 97935D7D
CRC32 hash : 97935D7D
CRC32 hash (skip zero) : C7E6CC82
AccurateRip v1 signature : 338A4D87
AccurateRip v2 signature : 7FD454F5
->Rip may not be accurate (total 3 submissions).
Statistics
Read error : 0
Jitter error (maybe fixed) : 0
Retry sector count : 0
Damaged sector count : 0
Track 02
Filename : /Volumes/wd mac/xld/Disc 2/02 - O Mimì, tu più non torni.flac
Track gain : 2.61 dB
Peak : 0.637970
CRC32 hash (test run) : E1407A3E
CRC32 hash : E1407A3E
CRC32 hash (skip zero) : 48EF7A84
AccurateRip v1 signature : 6CDF85D7
AccurateRip v2 signature : F243F84D
->Rip may not be accurate (total 3 submissions).
Statistics
Read error : 0
Jitter error (maybe fixed) : 0
Retry sector count : 0
Damaged sector count : 0
Track 03
Filename : /Volumes/wd mac/xld/Disc 2/03 - Gavotta.flac
Track gain : 3.42 dB
Peak : 0.611267
CRC32 hash (test run) : 7A985CD9
CRC32 hash : 7A985CD9
CRC32 hash (skip zero) : 534AE83B
AccurateRip v1 signature : DB651027
AccurateRip v2 signature : C5742D2D
->Rip may not be accurate (total 3 submissions).
Statistics
Read error : 0
Jitter error (maybe fixed) : 0
Retry sector count : 0
Damaged sector count : 0
Track 04
Filename : /Volumes/wd mac/xld/Disc 2/04 - C'è Mimì . . . C'è Mimì.flac
Track gain : 0.12 dB
Peak : 0.606873
CRC32 hash (test run) : 88F5B0FE
CRC32 hash : 88F5B0FE
CRC32 hash (skip zero) : 88D550DA
AccurateRip v1 signature : 1122AF31
AccurateRip v2 signature : BE03764F
->Rip may not be accurate (total 3 submissions).
Statistics
Read error : 0
Jitter error (maybe fixed) : 0
Retry sector count : 0
Damaged sector count : 0
Track 05
Filename : /Volumes/wd mac/xld/Disc 2/05 - Vecchia zimarra . . ..flac
Track gain : 9.34 dB
Peak : 0.228546
CRC32 hash (test run) : 1016F4D3
CRC32 hash : 1016F4D3
CRC32 hash (skip zero) : 36D10CD8
AccurateRip v1 signature : 7FBF7FCB
AccurateRip v2 signature : 1D6B3C30
->Rip may not be accurate (total 3 submissions).
Statistics
Read error : 0
Jitter error (maybe fixed) : 0
Retry sector count : 0
Damaged sector count : 0
Track 06
Filename : /Volumes/wd mac/xld/Disc 2/06 - Sono andati? Fingevo di dormire.flac
Track gain : 4.52 dB
Peak : 0.507416
CRC32 hash (test run) : 76BC5F87
CRC32 hash : 76BC5F87
CRC32 hash (skip zero) : 519014C9
AccurateRip v1 signature : 08E30D53
AccurateRip v2 signature : E426A760
->Rip may not be accurate (total 3 submissions).
Statistics
Read error : 0
Jitter error (maybe fixed) : 0
Retry sector count : 0
Damaged sector count : 0
Track 07
Filename : /Volumes/wd mac/xld/Disc 2/07 - Dorme? . . . Riposa.flac
Track gain : 0.40 dB
Peak : 0.816559
CRC32 hash (test run) : E0167FB1
CRC32 hash : E0167FB1
CRC32 hash (skip zero) : 6783902C
AccurateRip v1 signature : DC82AA37
AccurateRip v2 signature : 2990C2D1
->Rip may not be accurate (total 3 submissions).
Statistics
Read error : 0
Jitter error (maybe fixed) : 0
Retry sector count : 0
Damaged sector count : 0
Track 08
Filename : /Volumes/wd mac/xld/Disc 2/08 - Adriana Lecouvreur - Io son l'umile ancella.flac
Pre-gap length : 00:08:60
Track gain : 1.37 dB
Peak : 0.493927
CRC32 hash (test run) : AB96D35C
CRC32 hash : AB96D35C
CRC32 hash (skip zero) : 2875C803
AccurateRip v1 signature : 319ADF2A
AccurateRip v2 signature : 5F68CBD5
->Rip may not be accurate (total 3 submissions).
Statistics
Read error : 0
Jitter error (maybe fixed) : 0
Retry sector count : 0
Damaged sector count : 0
Track 09
Filename : /Volumes/wd mac/xld/Disc 2/09 - Manon Lescaut - In quelle trine morbide.flac
Pre-gap length : 00:02:53
Track gain : 0.08 dB
Peak : 0.506927
CRC32 hash (test run) : BCFF40E4
CRC32 hash : BCFF40E4
CRC32 hash (skip zero) : 5F8C45AC
AccurateRip v1 signature : 329F3423
AccurateRip v2 signature : 083F0ED8
->Rip may not be accurate (total 3 submissions).
Statistics
Read error : 0
Jitter error (maybe fixed) : 0
Retry sector count : 0
Damaged sector count : 0
Track 10
Filename : /Volumes/wd mac/xld/Disc 2/10 - Madama Butterfly - Un bel dì vedremo.flac
Pre-gap length : 00:02:55
Track gain : 2.53 dB
Peak : 0.453369
CRC32 hash (test run) : 2DBB2F69
CRC32 hash : 2DBB2F69
CRC32 hash (skip zero) : 7B662997
AccurateRip v1 signature : 66A2463A
AccurateRip v2 signature : B069E4FC
->Rip may not be accurate (total 3 submissions).
Statistics
Read error : 0
Jitter error (maybe fixed) : 0
Retry sector count : 0
Damaged sector count : 0
Track 11
Filename : /Volumes/wd mac/xld/Disc 2/11 - Turandot - Signore, ascolta!.flac
Pre-gap length : 00:03:05
Track gain : -0.03 dB
Peak : 0.511749
CRC32 hash (test run) : BBBF8C00
CRC32 hash : BBBF8C00
CRC32 hash (skip zero) : 92CDE347
AccurateRip v1 signature : 720FCBD4
AccurateRip v2 signature : 82982AE2
->Rip may not be accurate (total 3 submissions).
Statistics
Read error : 0
Jitter error (maybe fixed) : 0
Retry sector count : 0
Damaged sector count : 0
Track 12
Filename : /Volumes/wd mac/xld/Disc 2/12 - Turandot - Tu che di gel sei cinta.flac
Pre-gap length : 00:03:15
Track gain : 0.88 dB
Peak : 0.511719
CRC32 hash (test run) : AEA16210
CRC32 hash : AEA16210
CRC32 hash (skip zero) : 6FC90FC8
AccurateRip v1 signature : 24DB95A2
AccurateRip v2 signature : 40892BCC
->Rip may not be accurate (total 3 submissions).
Statistics
Read error : 0
Jitter error (maybe fixed) : 0
Retry sector count : 0
Damaged sector count : 0
Track 13
Filename : /Volumes/wd mac/xld/Disc 2/13 - Tuo Mi Chiami.flac
Pre-gap length : 00:03:05
Track gain : 0.75 dB
Peak : 0.419800
CRC32 hash (test run) : 6FE47518
CRC32 hash : 6FE47518
CRC32 hash (skip zero) : 6100D700
AccurateRip v1 signature : 698622C1
AccurateRip v2 signature : 083103AD
->Rip may not be accurate (total 3 submissions).
Statistics
Read error : 0
Jitter error (maybe fixed) : 0
Retry sector count : 0
Damaged sector count : 0
Track 14
Filename : /Volumes/wd mac/xld/Disc 2/14 - Ninna-Nanna a Liana.flac
Pre-gap length : 00:02:65
Track gain : 3.49 dB
Peak : 0.379791
CRC32 hash (test run) : EAD549AC
CRC32 hash : EAD549AC
CRC32 hash (skip zero) : E73940BD
AccurateRip v1 signature : B88DE5BA
AccurateRip v2 signature : DD5364DB
->Rip may not be accurate (total 3 submissions).
Statistics
Read error : 0
Jitter error (maybe fixed) : 0
Retry sector count : 0
Damaged sector count : 0
Track 15
Filename : /Volumes/wd mac/xld/Disc 2/15 - Giro-Tondo.flac
Pre-gap length : 00:02:60
Track gain : 0.85 dB
Peak : 0.423553
CRC32 hash (test run) : CE8FB2B3
CRC32 hash : CE8FB2B3
CRC32 hash (skip zero) : 69570B9E
AccurateRip v1 signature : F645E125
AccurateRip v2 signature : 333CBD1D
->Rip may not be accurate (total 3 submissions).
Statistics
Read error : 0
Jitter error (maybe fixed) : 0
Retry sector count : 0
Damaged sector count : 0
Track 16
Filename : /Volumes/wd mac/xld/Disc 2/16 - Dicitencello Vuje.flac
Pre-gap length : 00:02:57
Track gain : -0.34 dB
Peak : 0.490417
CRC32 hash (test run) : 1DA944AF
CRC32 hash : 1DA944AF
CRC32 hash (skip zero) : FDC129AD
AccurateRip v1 signature : 68743905
AccurateRip v2 signature : C86B13D0
->Rip may not be accurate (total 3 submissions).
Statistics
Read error : 0
Jitter error (maybe fixed) : 0
Retry sector count : 0
Damaged sector count : 0
Track 17
Filename : /Volumes/wd mac/xld/Disc 2/17 - Colombetta.flac
Pre-gap length : 00:02:35
Track gain : -1.08 dB
Peak : 0.460114
CRC32 hash (test run) : 2C159166
CRC32 hash : 2C159166
CRC32 hash (skip zero) : A64ED7D6
AccurateRip v1 signature : ACCF1A27
AccurateRip v2 signature : E23B2508
->Rip may not be accurate (total 3 submissions).
Statistics
Read error : 0
Jitter error (maybe fixed) : 0
Retry sector count : 0
Damaged sector count : 0
No errors occurred
End of status report
-----BEGIN XLD SIGNATURE-----
kCE48dRsind0_1TS60.5kXobKXY0k.EfVk3AWZEMVRmyr5axlZonXDZhZPJrWHULKWzgQ9Qb_hzxfOtB_y.0Eb7k7zr5FkJp5VzqGbW
-----END XLD SIGNATURE-----

Содержание индексной карты (.CUE)

CD1

TITLE "La Bohème (Berrettoni) 1"
PERFORMER "Albanese, Gigli, Menotti, Poli, Baronti, Baracchi - BERRETTONI; La Scala Feb, 1938"
REM GENRE "Classical"
REM DATE "1938"
REM DISCNUMBER 1
REM TOTALDISCS 2
REM DISCID 74114B19
REM REPLAYGAIN_ALBUM_GAIN -0.19 dB
REM REPLAYGAIN_ALBUM_PEAK 0.839905
FILE "01 - Questo Mar Rosso.flac" WAVE
TRACK 01 AUDIO
TITLE "Questo Mar Rosso"
SONGWRITER "Puccini, Giacomo (1858-1924)"
ISRC HKI190043101
REM REPLAYGAIN_TRACK_GAIN 0.14 dB
REM REPLAYGAIN_TRACK_PEAK 0.736786
INDEX 01 00:00:00
FILE "02 - Pensier profondo!.flac" WAVE
TRACK 02 AUDIO
TITLE "Pensier profondo!"
SONGWRITER "Puccini, Giacomo (1858-1924)"
ISRC HKI190043102
REM REPLAYGAIN_TRACK_GAIN 1.60 dB
REM REPLAYGAIN_TRACK_PEAK 0.663910
INDEX 01 00:00:00
FILE "03 - Legna! Sigari!.flac" WAVE
TRACK 03 AUDIO
TITLE "Legna! Sigari!"
SONGWRITER "Puccini, Giacomo (1858-1924)"
ISRC HKI190043103
REM REPLAYGAIN_TRACK_GAIN 1.55 dB
REM REPLAYGAIN_TRACK_PEAK 0.801697
INDEX 01 00:00:00
FILE "04 - Si puo? Chi e la.flac" WAVE
TRACK 04 AUDIO
TITLE "Si puo? Chi e la"
SONGWRITER "Puccini, Giacomo (1858-1924)"
ISRC HKI190043104
REM REPLAYGAIN_TRACK_GAIN 1.53 dB
REM REPLAYGAIN_TRACK_PEAK 0.765747
INDEX 01 00:00:00
FILE "05 - Lo resto per terminar.flac" WAVE
TRACK 05 AUDIO
TITLE "Lo resto per terminar"
SONGWRITER "Puccini, Giacomo (1858-1924)"
ISRC HKI190043105
REM REPLAYGAIN_TRACK_GAIN 3.82 dB
REM REPLAYGAIN_TRACK_PEAK 0.685181
INDEX 01 00:00:00
FILE "06 - Non sono in vena Scusi.flac" WAVE
TRACK 06 AUDIO
TITLE "Non sono in vena Scusi"
SONGWRITER "Puccini, Giacomo (1858-1924)"
ISRC HKI190043106
REM REPLAYGAIN_TRACK_GAIN 6.89 dB
REM REPLAYGAIN_TRACK_PEAK 0.404877
INDEX 01 00:00:00
FILE "07 - Oh! sventata, sventata!.flac" WAVE
TRACK 07 AUDIO
TITLE "Oh! sventata, sventata!"
SONGWRITER "Puccini, Giacomo (1858-1924)"
ISRC HKI190043107
REM REPLAYGAIN_TRACK_GAIN 0.22 dB
REM REPLAYGAIN_TRACK_PEAK 0.617706
INDEX 01 00:00:00
FILE "08 - Che gelida manina.flac" WAVE
TRACK 08 AUDIO
TITLE "Che gelida manina"
SONGWRITER "Puccini, Giacomo (1858-1924)"
ISRC HKI190043108
REM REPLAYGAIN_TRACK_GAIN -1.10 dB
REM REPLAYGAIN_TRACK_PEAK 0.565216
INDEX 01 00:00:00
FILE "09 - Si. Mi chiamano Mimi.flac" WAVE
TRACK 09 AUDIO
TITLE "Si. Mi chiamano Mimi"
SONGWRITER "Puccini, Giacomo (1858-1924)"
ISRC HKI190043109
REM REPLAYGAIN_TRACK_GAIN -1.78 dB
REM REPLAYGAIN_TRACK_PEAK 0.839905
INDEX 01 00:00:00
FILE "10 - Ehi! Rodolfo!.flac" WAVE
TRACK 10 AUDIO
TITLE "Ehi! Rodolfo!"
SONGWRITER "Puccini, Giacomo (1858-1924)"
ISRC HKI190043110
REM REPLAYGAIN_TRACK_GAIN 4.86 dB
REM REPLAYGAIN_TRACK_PEAK 0.409027
INDEX 01 00:00:00
FILE "11 - O soave fanciulla.flac" WAVE
TRACK 11 AUDIO
TITLE "O soave fanciulla"
SONGWRITER "Puccini, Giacomo (1858-1924)"
ISRC HKI190043111
REM REPLAYGAIN_TRACK_GAIN -1.52 dB
REM REPLAYGAIN_TRACK_PEAK 0.664764
INDEX 01 00:00:00
TRACK 12 AUDIO
TITLE "Aranci, datteri!"
SONGWRITER "Puccini, Giacomo (1858-1924)"
ISRC HKI190043112
REM REPLAYGAIN_TRACK_GAIN 1.93 dB
REM REPLAYGAIN_TRACK_PEAK 0.825714
INDEX 00 03:35:20
FILE "12 - Aranci, datteri!.flac" WAVE
INDEX 01 00:00:00
FILE "13 - Chi guardu?.flac" WAVE
TRACK 13 AUDIO
TITLE "Chi guardu?"
SONGWRITER "Puccini, Giacomo (1858-1924)"
ISRC HKI190043113
REM REPLAYGAIN_TRACK_GAIN 2.41 dB
REM REPLAYGAIN_TRACK_PEAK 0.711426
INDEX 01 00:00:00
FILE "14 - Viva Parpignol!.flac" WAVE
TRACK 14 AUDIO
TITLE "Viva Parpignol!"
SONGWRITER "Puccini, Giacomo (1858-1924)"
ISRC HKI190043114
REM REPLAYGAIN_TRACK_GAIN 1.67 dB
REM REPLAYGAIN_TRACK_PEAK 0.475891
INDEX 01 00:00:00
FILE "15 - Domandatelo a me.flac" WAVE
TRACK 15 AUDIO
TITLE "Domandatelo a me"
SONGWRITER "Puccini, Giacomo (1858-1924)"
ISRC HKI190043115
REM REPLAYGAIN_TRACK_GAIN 3.56 dB
REM REPLAYGAIN_TRACK_PEAK 0.498169
INDEX 01 00:00:00
FILE "16 - Quando me'n vo'soletta.flac" WAVE
TRACK 16 AUDIO
TITLE "Quando me'n vo'soletta"
SONGWRITER "Puccini, Giacomo (1858-1924)"
ISRC HKI190043116
REM REPLAYGAIN_TRACK_GAIN -1.61 dB
REM REPLAYGAIN_TRACK_PEAK 0.747009
INDEX 01 00:00:00
FILE "17 - Chi l'ha richiesto.flac" WAVE
TRACK 17 AUDIO
TITLE "Chi l'ha richiesto"
SONGWRITER "Puccini, Giacomo (1858-1924)"
ISRC HKI190043117
REM REPLAYGAIN_TRACK_GAIN -1.51 dB
REM REPLAYGAIN_TRACK_PEAK 0.831390
INDEX 01 00:00:00
TRACK 18 AUDIO
TITLE "Ohe, la, le guardie Aprite!"
SONGWRITER "Puccini, Giacomo (1858-1924)"
ISRC HKI190043118
REM REPLAYGAIN_TRACK_GAIN 13.12 dB
REM REPLAYGAIN_TRACK_PEAK 0.370667
INDEX 00 02:11:10
FILE "18 - Ohe, la, le guardie Aprite!.flac" WAVE
INDEX 01 00:00:00
FILE "19 - Sa dirmi, scusi, qual'e l'osteria.flac" WAVE
TRACK 19 AUDIO
TITLE "Sa dirmi, scusi, qual'e l'osteria"
SONGWRITER "Puccini, Giacomo (1858-1924)"
ISRC HKI190043119
REM REPLAYGAIN_TRACK_GAIN 8.94 dB
REM REPLAYGAIN_TRACK_PEAK 0.366394
INDEX 01 00:00:00
FILE "20 - Mimi?! Speravo di trovarvi qui.flac" WAVE
TRACK 20 AUDIO
TITLE "Mimi?! Speravo di trovarvi qui"
SONGWRITER "Puccini, Giacomo (1858-1924)"
ISRC HKI190043120
REM REPLAYGAIN_TRACK_GAIN 1.02 dB
REM REPLAYGAIN_TRACK_PEAK 0.605865
INDEX 01 00:00:00
FILE "21 - Marcello. Finalmente.flac" WAVE
TRACK 21 AUDIO
TITLE "Marcello. Finalmente"
SONGWRITER "Puccini, Giacomo (1858-1924)"
ISRC HKI190043121
REM REPLAYGAIN_TRACK_GAIN -1.13 dB
REM REPLAYGAIN_TRACK_PEAK 0.664398
INDEX 01 00:00:00
FILE "22 - Mimi e una civetta.flac" WAVE
TRACK 22 AUDIO
TITLE "Mimi e una civetta"
SONGWRITER "Puccini, Giacomo (1858-1924)"
ISRC HKI190043122
REM REPLAYGAIN_TRACK_GAIN -1.62 dB
REM REPLAYGAIN_TRACK_PEAK 0.764648
INDEX 01 00:00:00
FILE "23 - Mimi e tanto malata!.flac" WAVE
TRACK 23 AUDIO
TITLE "Mimi e tanto malata!"
SONGWRITER "Puccini, Giacomo (1858-1924)"
ISRC HKI190043123
REM REPLAYGAIN_TRACK_GAIN -1.00 dB
REM REPLAYGAIN_TRACK_PEAK 0.632111
INDEX 01 00:00:00
FILE "24 - Addio Donde lieta usci al tuo grido.flac" WAVE
TRACK 24 AUDIO
TITLE "Addio Donde lieta usci al tuo grido"
SONGWRITER "Puccini, Giacomo (1858-1924)"
ISRC HKI190043124
REM REPLAYGAIN_TRACK_GAIN -1.86 dB
REM REPLAYGAIN_TRACK_PEAK 0.611542
INDEX 01 00:00:00
FILE "25 - Dunque e proprio finita.flac" WAVE
TRACK 25 AUDIO
TITLE "Dunque e proprio finita"
SONGWRITER "Puccini, Giacomo (1858-1924)"
ISRC HKI190043125
REM REPLAYGAIN_TRACK_GAIN -1.82 dB
REM REPLAYGAIN_TRACK_PEAK 0.767792
INDEX 01 00:00:00

CD2

TITLE "La Bohème (Berrettoni) 2"
PERFORMER "La Scala Opera Corus and Orchestra - Umberto Berrettoni, conducting"
REM GENRE "Classical"
REM DISCNUMBER 2
REM TOTALDISCS 2
REM DISCID E90DD111
REM REPLAYGAIN_ALBUM_GAIN 1.35 dB
REM REPLAYGAIN_ALBUM_PEAK 0.816559
REM COMPILATION TRUE
FILE "01 - In un coupe?.flac" WAVE
TRACK 01 AUDIO
TITLE "In un coupe?"
SONGWRITER "Giacomo Puccini"
ISRC HKI190043201
REM DATE 1938
REM REPLAYGAIN_TRACK_GAIN 5.23 dB
REM REPLAYGAIN_TRACK_PEAK 0.523499
INDEX 01 00:00:00
FILE "02 - O Mimì, tu più non torni.flac" WAVE
TRACK 02 AUDIO
TITLE "O Mimì, tu più non torni"
SONGWRITER "Giacomo Puccini"
ISRC HKI190043202
REM DATE 1938
REM REPLAYGAIN_TRACK_GAIN 2.61 dB
REM REPLAYGAIN_TRACK_PEAK 0.637970
INDEX 01 00:00:00
FILE "03 - Gavotta.flac" WAVE
TRACK 03 AUDIO
TITLE "Gavotta"
SONGWRITER "Giacomo Puccini"
ISRC HKI190043203
REM DATE 1938
REM REPLAYGAIN_TRACK_GAIN 3.42 dB
REM REPLAYGAIN_TRACK_PEAK 0.611267
INDEX 01 00:00:00
FILE "04 - C'è Mimì . . . C'è Mimì.flac" WAVE
TRACK 04 AUDIO
TITLE "C'è Mimì . . . C'è Mimì"
SONGWRITER "Giacomo Puccini"
ISRC HKI190043204
REM DATE 1938
REM REPLAYGAIN_TRACK_GAIN 0.12 dB
REM REPLAYGAIN_TRACK_PEAK 0.606873
INDEX 01 00:00:00
FILE "05 - Vecchia zimarra . . ..flac" WAVE
TRACK 05 AUDIO
TITLE "Vecchia zimarra . . ."
SONGWRITER "Giacomo Puccini"
ISRC HKI190043205
REM DATE 1938
REM REPLAYGAIN_TRACK_GAIN 9.34 dB
REM REPLAYGAIN_TRACK_PEAK 0.228546
INDEX 01 00:00:00
FILE "06 - Sono andati? Fingevo di dormire.flac" WAVE
TRACK 06 AUDIO
TITLE "Sono andati? Fingevo di dormire"
SONGWRITER "Giacomo Puccini"
ISRC HKI190043206
REM DATE 1938
REM REPLAYGAIN_TRACK_GAIN 4.52 dB
REM REPLAYGAIN_TRACK_PEAK 0.507416
INDEX 01 00:00:00
FILE "07 - Dorme? . . . Riposa.flac" WAVE
TRACK 07 AUDIO
TITLE "Dorme? . . . Riposa"
SONGWRITER "Giacomo Puccini"
ISRC HKI190043207
REM DATE 1938
REM REPLAYGAIN_TRACK_GAIN 0.40 dB
REM REPLAYGAIN_TRACK_PEAK 0.816559
INDEX 01 00:00:00
TRACK 08 AUDIO
TITLE "Adriana Lecouvreur - Io son l'umile ancella"
SONGWRITER "Francesco Cilea"
ISRC HKI190043208
REM DATE 2001
REM REPLAYGAIN_TRACK_GAIN 1.37 dB
REM REPLAYGAIN_TRACK_PEAK 0.493927
INDEX 00 04:31:65
FILE "08 - Adriana Lecouvreur - Io son l'umile ancella.flac" WAVE
INDEX 01 00:00:00
TRACK 09 AUDIO
TITLE "Manon Lescaut - In quelle trine morbide"
SONGWRITER "Giacomo Puccini"
ISRC HKI190043209
REM DATE 2001
REM REPLAYGAIN_TRACK_GAIN 0.08 dB
REM REPLAYGAIN_TRACK_PEAK 0.506927
INDEX 00 03:33:57
FILE "09 - Manon Lescaut - In quelle trine morbide.flac" WAVE
INDEX 01 00:00:00
TRACK 10 AUDIO
TITLE "Madama Butterfly - Un bel dì vedremo"
SONGWRITER "Giacomo Puccini"
ISRC HKI190043210
REM DATE 2001
REM REPLAYGAIN_TRACK_GAIN 2.53 dB
REM REPLAYGAIN_TRACK_PEAK 0.453369
INDEX 00 02:35:62
FILE "10 - Madama Butterfly - Un bel dì vedremo.flac" WAVE
INDEX 01 00:00:00
TRACK 11 AUDIO
TITLE "Turandot - Signore, ascolta!"
SONGWRITER "Giacomo Puccini"
ISRC HKI190043211
REM DATE 2001
REM REPLAYGAIN_TRACK_GAIN -0.03 dB
REM REPLAYGAIN_TRACK_PEAK 0.511749
INDEX 00 04:27:18
FILE "11 - Turandot - Signore, ascolta!.flac" WAVE
INDEX 01 00:00:00
TRACK 12 AUDIO
TITLE "Turandot - Tu che di gel sei cinta"
SONGWRITER "Giacomo Puccini"
ISRC HKI190043212
REM DATE 2001
REM REPLAYGAIN_TRACK_GAIN 0.88 dB
REM REPLAYGAIN_TRACK_PEAK 0.511719
INDEX 00 02:34:17
FILE "12 - Turandot - Tu che di gel sei cinta.flac" WAVE
INDEX 01 00:00:00
TRACK 13 AUDIO
TITLE "Tuo Mi Chiami"
SONGWRITER "Domenico Scarlatti"
ISRC HKI190043213
REM DATE 2001
REM REPLAYGAIN_TRACK_GAIN 0.75 dB
REM REPLAYGAIN_TRACK_PEAK 0.419800
INDEX 00 02:47:13
FILE "13 - Tuo Mi Chiami.flac" WAVE
INDEX 01 00:00:00
TRACK 14 AUDIO
TITLE "Ninna-Nanna a Liana"
SONGWRITER "Vicenzo Bellini"
ISRC HKI190043214
REM DATE 2001
REM REPLAYGAIN_TRACK_GAIN 3.49 dB
REM REPLAYGAIN_TRACK_PEAK 0.379791
INDEX 00 03:42:55
FILE "14 - Ninna-Nanna a Liana.flac" WAVE
INDEX 01 00:00:00
TRACK 15 AUDIO
TITLE "Giro-Tondo"
SONGWRITER "Traditional"
ISRC HKI190043215
REM DATE 2001
REM REPLAYGAIN_TRACK_GAIN 0.85 dB
REM REPLAYGAIN_TRACK_PEAK 0.423553
INDEX 00 03:17:47
FILE "15 - Giro-Tondo.flac" WAVE
INDEX 01 00:00:00
TRACK 16 AUDIO
TITLE "Dicitencello Vuje"
SONGWRITER "Falvo"
ISRC HKI190043216
REM DATE 2001
REM REPLAYGAIN_TRACK_GAIN -0.34 dB
REM REPLAYGAIN_TRACK_PEAK 0.490417
INDEX 00 02:40:03
FILE "16 - Dicitencello Vuje.flac" WAVE
INDEX 01 00:00:00
TRACK 17 AUDIO
TITLE "Colombetta"
SONGWRITER "Buzzi"
ISRC HKI190043217
REM DATE 2001
REM REPLAYGAIN_TRACK_GAIN -1.08 dB
REM REPLAYGAIN_TRACK_PEAK 0.460114
INDEX 00 03:26:68
FILE "17 - Colombetta.flac" WAVE
INDEX 01 00:00:00

Доп. информация

Диск содержит дополнительные материалы в исполнении Личии Альбанезе, за подробностями — см. описание ниже.
Despite the cool reception accorded to La Bohème at its première in 1896 - even with the great Toscanini on the podium! - it soon became, and has remained, one of the best-loved of all Italian operas. Its melodies soar, carrying every listener through the story of the impoverished lives of Rodolfo, Mimì and their colourful friends. It is, perhaps, the poverty that they suffer that makes them such endearing characters; we may not all have been as poor as they are, nor has everyone endured the same bitter cold that permeates their story, but many of us have loved and felt the pain of parting and loss. These bohemians are real people, young, vivacious, jealous and heartbroken.
What is needed to portray these people, of course, is an ideal cast, for only through the finest interpretations can the love and loss of their story be fully realised. Surely on this recording we have the greatest Rodolfo and Mimì of their generation, and a Marcello and Musetta fully worthy of their friendship.
In one sense this is Gigli’s Bohème; by 1938 he had been singing the rôle for many years and had fully absorbed the character of Rodolfo. He includes special touches for his ‘gramophone’ audience which may not have been evident in stage performances. A courteous, unwritten, prego when Mimì thanks him for re-lighting her candle; a charmingly emphasized in verità as he tries to assure her that he has not found her doorkey; an impish chuckle in the voice as, surprisingly, his own candle is extinguished. And these examples are just from the short scene in the garret after their first meeting; Gigli’s interpretation is filled with such telling moments, bringing the young poet to life as perhaps only a native Italian speaker can. His whole performance is suffused with the vocal warmth for which he was renowned; from the finest pianissimo thread of golden tone to the full-throated blaze of an Italian summer noon.
For the twenty-four year old Licia Albanese, the opportunity to star with the great tenor in this recording must have seemed like a dream come true. After a career of less than four (albeit brilliantly successful) years, she immortalised her moving characterisation of Mimì, setting a standard that younger singers would hope to emulate. Her gleaming, long-breathed soprano is pure throughout its range and she encompasses the arching phrases of Mi chiamano Mimì with ease; her third act encounter with Marcello reveals the anguish of an imminent break with Rodolfo, the voice coloured with the pain of parting as she sings Mimì’s Addio, senza rancor. As recorded, Albanese’s seems to be a large voice, but in the last act she fines it down for the return of the themes from Act 1 and in her short exchange with Musetta about the muff that, she is told, Rodolfo has bought her.
Albanese’s versatility is amply demonstrated in the ten additional items on CD2. The tone is soft and velvet-like in Adriana Lecouvreur’s aria, while Scarlatti’s stately Tuo Mi Chiami is from a period whose music she never sang in the opera house. Giro-Tondo shows a teasing side to her character, whilst Buzzi’s Colombine’s infectious tune, with its unexpected ‘whirring’ and sighing might catch the attention of any amorous dove within earshot. These are most attractive examples of the art of a greatly-loved diva.
In this fine company Afro Poli and Tatiana Menotti make a fitting ‘second couple’. Poli’s firmly focused tone is good to hear, and how expressively he uses it. In Marcello’s duets with Rodolfo they really sound like friends (perhaps the two singers were...?), reacting to each other in the most natural, yet musical ways. Menotti’s Musetta is wonderfully theatrical in the second act; she gives a fine lesson in how to dispose of one lover and take back a former one. By Act 3 things have changed and she becomes a shrill, independent strega (to use Marcello’s insult), ready to go her own way. Different again at the opera’s close, she is tender and compassionate with the dying Mimì - a young lady of many moods. Menotti’s bright soprano is ideal for this sometimes underestimated rôle.
This was not the first set of La Bohème to be recorded but it must rank as the first serious contender to be a definitive version. Each of the principals lives and sings as if the tragic story of Rodolfo and Mimì is for real and, given a cast of this quality, real is what it becomes.
La Bohème was first performed on 1st February 1896 at the Teatro Regio, Turin.
Paul Campion



Показать сообщения:    

Текущее время: 09-Дек 20:29

Часовой пояс: UTC + 3


Вы не можете начинать темы
Вы не можете отвечать на сообщения
Вы не можете редактировать свои сообщения
Вы не можете удалять свои сообщения
Вы не можете голосовать в опросах
Вы не можете прикреплять файлы к сообщениям
Вы не можете скачивать файлы