(Opera) Massenet - Griselidis (Command, Larcher, Desnoues, Courtis, Viala - Choeurs de Lyon / Orchestre Symphonique Franz Liszt de Budapest, Fournillier) - 1994, APE (image+.cue) lossless


 

[Цитировать]

Jules Massenet - Grisélidis
Жанр: Opera
Страна-производитель диска: Austria
Год издания диска: 1994
Издатель (лейбл): Koch-Scwann
Номер по каталогу: 3-1270-2
Дата записи: 1992
Аудиокодек: APE
Тип рипа: image+.cue
Битрейт аудио: lossless
Продолжительность: 51'19+69'37
Источник: собственный рип
Наличие сканов в содержимом раздачи: да
Треклист:

CD1

01 Prelude
02 Vous sur mon front, portes du Paradis (Alain)
03 Prieur, de ces cotes, on l'aura vu (Gondebaud - Le Prieur - Alain)
04 Voir Griselidis, c'est connaitre (Alain)
05 Ah! Voyez le arquis! (Gondebaud - Le Prieur - Le Marquis)
06 Toi qui portes la paix (Le Marquis)
07 La volonte du ciel, sans doute, etant la votre (Griselidis - Le Marquis)
08 Fermez - vous sur mon front, portes du Paradis! (Alain)
09 Prelude
10 En avigono, pays d'amour (Bertrade)
11 Chut! les chansons d'amour ont fait leur temps
12 Ah! d'un regret cruel (Le Marquis - Le Prieur)
13 Que dis-tu? Traiter en prisonniere Griselidis (Le Marquis - Le Prieur)
14 Monseigneur, me voila! (Le Diable - Le Prieur - Le Marquis)
15 J'avais fait, comme on dit, le diable sur la terre (Le Diable - Le Prieur - Le Marquis)
16 Pour que nul ne dise que je doute (Le Marquis - Le Diable)
17 C'est peu pour le soldat de quitter sa demeure (Le Marquis)
18 Griselidis! - Pardon, Monseigneur et mon Maitre! (Le Marquis - Griselidis)
19 Serment; Devant le soleil clair (Griselidis - Le Marquis)
20 Toi, dont pour le faix lourd des armes (La Marquis)
21 Bertrade, reprenons la page commencee (Griselidis - Bertrade)
22 Entr'act - Idylle
23 Jusqu'ici, sans dangers, j'ai pu vivre invisible (Le Diable)
24 Loin de sa femme qu'on est bien (Le Diable)
25 Quand les chats n'y sont pas (Le Diable - Fiamina)
26 Belitre! - Drolesse! (Le Diable - Fiamina)
27 Mon epoux! Mon tresor!

CD2

01 La mer! Et sur les flots toujours bleux (Griselidis)
02 Il Partit au printemps! (Griselidis)
03 O Seigneur, je vous prie (Griselidis)
04 Je vous salue, Marie
05 Madame, un etranger (Bertrade - Griselidis - Le Diable - Fiamina)
06 Merci du grand honneur (Le Diable - Fiamina - Griselidis)
07 Quand nous vimes le Marquis (Le Diable - Fiamina - Le Diable)
08 J'obeirai. Voici l'anneau (Griselidis - Fiamina - Le Diable)
09 Mon cher eqoux, qu'en dis-vous? (Fiamina - Le Diable)
10 Des bois obscurs, des blaches greves (Le Diable)
11 Appearance And Waltz Of The Spirits
12 Et montant, sous les cieux deserts (Le Diable)
13 Vous, qui portez en vous l'ame auguste des reves (Le Diable)
14 Je suis l'oiseau que le frisson d'hiver (Alain)
15 Le reve a fui mon front (Griselidis - Alain)
16 Griselidis, ecoute moi! (Amain - Griselidis )
17 Laisse - Moi! (Griselidis - Alain - Le Diable)
18 Doux reves de jadis! (Alain - Griselidis)
19 Ah! Loys! Ou donc es-tu? (Griselidis - Bertrade - Le Diable)
20 Prelude
21 Priere; Loys! Loys! Des larmes brulent ma paupiere! (Griselidis - Bertrade - Le Diable)
22 Madame, a vos ordres (Le Diable - Griselidis)
23 Le corsaire est galant, Madame (Le Diable - Griselidis)
24 En comportant ceci que pour me garder mieux (Griselidis - Le Diable)
25 Le Marquis, a present! (Le Diable - Le Marquis)
26 A present devant ta demeure (le Marquis)
27 Avant de vous parler (Griselidis - Le Marquis)
28 Loin qu' elle te pardonne (Griselidis)
29 Comme au bord des ruisseaux (Le Marquis - Griselidis)
30 Eh bien! C'est du joli! (Le Diable - Griselidis - Le Marquis)
31 L'heure cruelle, helas! (Griselidis - Le Marquis)
32 Des armes! Des armes (Le Marquis - Griselidis)
33 O Croix sainte, immortelle flamme (Griselidis - Le Marquis)
34 Par cette criox qui nous defend - O sainte Agnes! (Le Marquis - Griselidis)
35 Magnificat anima mea (Le Marquis - Griselidis - Le Diable)
Исполнители:
Jules Massenet - Grisélidis
Conte Lyrique en 3 Actes, avec un Prologue
Grisélidis - Michèle Command
Fiamina - Claire Larcher
Bertrade - Brigitte Desnoues
Le Diable - Jean-Philippe Courtis
Alain - Jean-Luc Viala
Le Marquis - Didier Henry
Choeurs de Lyon
Orchestre Symphonique Franz Liszt de Budapest
Patrick Fournillier

Лог создания рипа

CD1

Exact Audio Copy V1.0 beta 3 from 29. August 2011
EAC extraction logfile from 26. December 2014, 14:01
Massenet / Griselidis, Fournillier) CD1
Used drive : TSSTcorpCDDVDW SE-208AB Adapter: 1 ID: 0
Read mode : Secure
Utilize accurate stream : Yes
Defeat audio cache : Yes
Make use of C2 pointers : No
Read offset correction : 6
Overread into Lead-In and Lead-Out : No
Fill up missing offset samples with silence : Yes
Delete leading and trailing silent blocks : No
Null samples used in CRC calculations : Yes
Used interface : Native Win32 interface for Win NT & 2000
Used output format : Monkey's Audio Lossless Encoder
Selected bitrate : High Lossless Compression
Quality : High
Add ID3 tag : Yes
Command line compressor : C:\Program Files (x86)\Exact Audio Copy\MAC\MAC.exe
TOC of the extracted CD
Track | Start | Length | Start sector | End sector
---------------------------------------------------------
1 | 0:00.32 | 1:34.23 | 32 | 7104
2 | 1:34.55 | 1:20.17 | 7105 | 13121
3 | 2:54.72 | 1:33.03 | 13122 | 20099
4 | 4:28.00 | 1:52.22 | 20100 | 28521
5 | 6:20.22 | 1:43.45 | 28522 | 36291
6 | 8:03.67 | 1:02.25 | 36292 | 40966
7 | 9:06.17 | 2:58.45 | 40967 | 54361
8 | 12:04.62 | 1:04.55 | 54362 | 59216
9 | 13:09.42 | 1:17.55 | 59217 | 65046
10 | 14:27.22 | 2:20.08 | 65047 | 75554
11 | 16:47.30 | 1:27.52 | 75555 | 82131
12 | 18:15.07 | 1:31.08 | 82132 | 88964
13 | 19:46.15 | 2:31.65 | 88965 | 100354
14 | 22:18.05 | 0:45.47 | 100355 | 103776
15 | 23:03.52 | 2:17.05 | 103777 | 114056
16 | 25:20.57 | 1:24.60 | 114057 | 120416
17 | 26:45.42 | 3:00.05 | 120417 | 133921
18 | 29:45.47 | 2:16.35 | 133922 | 144156
19 | 32:02.07 | 3:21.35 | 144157 | 159266
20 | 35:23.42 | 3:49.50 | 159267 | 176491
21 | 39:13.17 | 1:45.73 | 176492 | 184439
22 | 40:59.15 | 1:59.25 | 184440 | 193389
23 | 42:58.40 | 1:03.17 | 193390 | 198131
24 | 44:01.57 | 2:28.05 | 198132 | 209236
25 | 46:29.62 | 1:36.40 | 209237 | 216476
26 | 48:06.27 | 2:09.48 | 216477 | 226199
27 | 50:16.00 | 1:03.45 | 226200 | 230969
Range status and errors
Selected range
Filename D:\EAC\Massenet - Griselidis, Fournillier) CD1.wav
Peak level 84.4 %
Extraction speed 4.6 X
Range quality 100.0 %
Test CRC F0D21FD0
Copy CRC F0D21FD0
Copy OK
No errors occurred
AccurateRip summary
Track 1 cannot be verified as accurate (confidence 2) [F19BE3D3], AccurateRip returned [5D078B41] (AR v2)
Track 2 cannot be verified as accurate (confidence 2) [B6D9F08B], AccurateRip returned [11F9BB04] (AR v2)
Track 3 cannot be verified as accurate (confidence 2) [16188CBF], AccurateRip returned [60E63863] (AR v2)
Track 4 cannot be verified as accurate (confidence 2) [AC3699DD], AccurateRip returned [2F63C248] (AR v2)
Track 5 cannot be verified as accurate (confidence 2) [03AF22F8], AccurateRip returned [875AFB09] (AR v2)
Track 6 cannot be verified as accurate (confidence 2) [3FC68416], AccurateRip returned [E84A02E8] (AR v2)
Track 7 cannot be verified as accurate (confidence 2) [E6220BBF], AccurateRip returned [D5AB6429] (AR v2)
Track 8 cannot be verified as accurate (confidence 2) [131FE7EF], AccurateRip returned [A30BCFC3] (AR v2)
Track 9 cannot be verified as accurate (confidence 2) [BECFDDA9], AccurateRip returned [FD642905] (AR v2)
Track 10 cannot be verified as accurate (confidence 2) [D2841C67], AccurateRip returned [5FBDD7FE] (AR v2)
Track 11 cannot be verified as accurate (confidence 2) [656219D3], AccurateRip returned [816FEE98] (AR v2)
Track 12 cannot be verified as accurate (confidence 2) [538225AC], AccurateRip returned [F9E8EB13] (AR v2)
Track 13 cannot be verified as accurate (confidence 2) [FDC05FFC], AccurateRip returned [3CEBA4AE] (AR v2)
Track 14 cannot be verified as accurate (confidence 2) [D5629163], AccurateRip returned [79E23785] (AR v2)
Track 15 cannot be verified as accurate (confidence 2) [4DBD2923], AccurateRip returned [8F70685F] (AR v2)
Track 16 cannot be verified as accurate (confidence 2) [D38866D8], AccurateRip returned [39121008] (AR v2)
Track 17 cannot be verified as accurate (confidence 2) [D9E3AF2C], AccurateRip returned [068323BC] (AR v2)
Track 18 cannot be verified as accurate (confidence 2) [20051369], AccurateRip returned [D7A022C5] (AR v2)
Track 19 cannot be verified as accurate (confidence 2) [0E868F91], AccurateRip returned [368857A0] (AR v2)
Track 20 cannot be verified as accurate (confidence 2) [842A3647], AccurateRip returned [16BFB10A] (AR v2)
Track 21 cannot be verified as accurate (confidence 2) [1E0D2B56], AccurateRip returned [996F8F08] (AR v2)
Track 22 cannot be verified as accurate (confidence 2) [CFFA5DB7], AccurateRip returned [1AA731C7] (AR v2)
Track 23 cannot be verified as accurate (confidence 2) [7D667399], AccurateRip returned [CF7B4751] (AR v2)
Track 24 cannot be verified as accurate (confidence 2) [4B65759A], AccurateRip returned [EA0BE30E] (AR v2)
Track 25 cannot be verified as accurate (confidence 2) [6FA50601], AccurateRip returned [CC74F7C3] (AR v2)
Track 26 cannot be verified as accurate (confidence 2) [51BB0778], AccurateRip returned [D26663EE] (AR v2)
Track 27 cannot be verified as accurate (confidence 2) [74C556AA], AccurateRip returned [91FEA418] (AR v2)
No tracks could be verified as accurate
You may have a different pressing from the one(s) in the database
End of status report
---- CUETools DB Plugin V2.1.3
[CTDB TOCID: ck5yd1LERwwiK9OLHSfOWxgaMRY-] disk not present in database, Submit result: discs with pregaps not supported in this protocol version
==== Log checksum 5F2A724D6CE83A084E69B9F0B6BD3BDA79E3C2B7411A76579F6F6B9FD7B765D6 ====

CD2

Exact Audio Copy V1.0 beta 3 from 29. August 2011
EAC extraction logfile from 26. December 2014, 14:19
Massenet / Griselidis, Fournillier) CD2
Used drive : TS8XDVDSTRANSCEND Adapter: 1 ID: 1
Read mode : Secure
Utilize accurate stream : Yes
Defeat audio cache : Yes
Make use of C2 pointers : No
Read offset correction : 6
Overread into Lead-In and Lead-Out : No
Fill up missing offset samples with silence : Yes
Delete leading and trailing silent blocks : No
Null samples used in CRC calculations : Yes
Used interface : Native Win32 interface for Win NT & 2000
Used output format : Monkey's Audio Lossless Encoder
Selected bitrate : High Lossless Compression
Quality : High
Add ID3 tag : Yes
Command line compressor : C:\Program Files (x86)\Exact Audio Copy\MAC\MAC.exe
TOC of the extracted CD
Track | Start | Length | Start sector | End sector
---------------------------------------------------------
1 | 0:00.32 | 1:22.05 | 32 | 6186
2 | 1:22.37 | 3:40.63 | 6187 | 22749
3 | 5:03.25 | 1:53.52 | 22750 | 31276
4 | 6:57.02 | 1:37.08 | 31277 | 38559
5 | 8:34.10 | 0:59.05 | 38560 | 42989
6 | 9:33.15 | 2:36.40 | 42990 | 54729
7 | 12:09.55 | 2:20.62 | 54730 | 65291
8 | 14:30.42 | 2:03.20 | 65292 | 74536
9 | 16:33.62 | 1:52.58 | 74537 | 82994
10 | 18:26.45 | 2:20.55 | 82995 | 93549
11 | 20:47.25 | 1:03.17 | 93550 | 98291
12 | 21:50.42 | 1:07.03 | 98292 | 103319
13 | 22:57.45 | 1:26.40 | 103320 | 109809
14 | 24:24.10 | 2:31.45 | 109810 | 121179
15 | 26:55.55 | 2:56.00 | 121180 | 134379
16 | 29:51.55 | 2:37.52 | 134380 | 146206
17 | 32:29.32 | 2:37.20 | 146207 | 158001
18 | 35:06.52 | 0:36.35 | 158002 | 160736
19 | 35:43.12 | 1:52.58 | 160737 | 169194
20 | 37:35.70 | 0:47.00 | 169195 | 172719
21 | 38:22.70 | 3:54.42 | 172720 | 190311
22 | 42:17.37 | 0:47.18 | 190312 | 193854
23 | 43:04.55 | 1:50.55 | 193855 | 202159
24 | 44:55.35 | 1:33.07 | 202160 | 209141
25 | 46:28.42 | 4:06.33 | 209142 | 227624
26 | 50:35.00 | 2:10.45 | 227625 | 237419
27 | 52:45.45 | 4:47.35 | 237420 | 258979
28 | 57:33.05 | 0:41.02 | 258980 | 262056
29 | 58:14.07 | 1:48.10 | 262057 | 270166
30 | 60:02.17 | 0:43.73 | 270167 | 273464
31 | 60:46.15 | 2:06.60 | 273465 | 282974
32 | 62:53.00 | 1:19.47 | 282975 | 288946
33 | 64:12.47 | 1:57.25 | 288947 | 297746
34 | 66:09.72 | 1:23.20 | 297747 | 303991
35 | 67:33.17 | 2:04.40 | 303992 | 313331
Range status and errors
Selected range
Filename D:\EAC\Massenet - Griselidis, Fournillier) CD2.wav
Peak level 97.9 %
Extraction speed 3.5 X
Range quality 100.0 %
Test CRC 73C52A43
Copy CRC 73C52A43
Copy OK
No errors occurred
AccurateRip summary
Track 1 cannot be verified as accurate (confidence 2) [0EB2244D], AccurateRip returned [3CF7C804] (AR v2)
Track 2 cannot be verified as accurate (confidence 2) [18A3460C], AccurateRip returned [B9C4FC15] (AR v2)
Track 3 cannot be verified as accurate (confidence 2) [DAAB0C88], AccurateRip returned [3F98DCC9] (AR v2)
Track 4 cannot be verified as accurate (confidence 2) [E34132F2], AccurateRip returned [8BB69085] (AR v2)
Track 5 cannot be verified as accurate (confidence 2) [D4DEFD2B], AccurateRip returned [F3D4E63F] (AR v2)
Track 6 cannot be verified as accurate (confidence 2) [1F13BDA7], AccurateRip returned [D86B0712] (AR v2)
Track 7 cannot be verified as accurate (confidence 2) [71773D65], AccurateRip returned [B7E2067F] (AR v2)
Track 8 cannot be verified as accurate (confidence 2) [6BD45C7D], AccurateRip returned [7B247880] (AR v2)
Track 9 cannot be verified as accurate (confidence 2) [3591F33C], AccurateRip returned [96766751] (AR v2)
Track 10 cannot be verified as accurate (confidence 2) [6D1CAE49], AccurateRip returned [C2790AEA] (AR v2)
Track 11 cannot be verified as accurate (confidence 2) [3B99A4EA], AccurateRip returned [09F59C4A] (AR v2)
Track 12 cannot be verified as accurate (confidence 2) [7A4169FA], AccurateRip returned [68D4CBAD] (AR v2)
Track 13 cannot be verified as accurate (confidence 2) [ED4B135C], AccurateRip returned [8277B8F3] (AR v2)
Track 14 cannot be verified as accurate (confidence 2) [C8195C2A], AccurateRip returned [135330B1] (AR v2)
Track 15 cannot be verified as accurate (confidence 2) [EC8DEFFE], AccurateRip returned [CFD8B6BC] (AR v2)
Track 16 cannot be verified as accurate (confidence 2) [34FCABA5], AccurateRip returned [AA3E4383] (AR v2)
Track 17 cannot be verified as accurate (confidence 2) [6C88BE9F], AccurateRip returned [4288BF73] (AR v2)
Track 18 cannot be verified as accurate (confidence 2) [DC5654EE], AccurateRip returned [8E2DA2AD] (AR v2)
Track 19 cannot be verified as accurate (confidence 2) [7001C103], AccurateRip returned [31D7F796] (AR v2)
Track 20 cannot be verified as accurate (confidence 2) [5FD1BC04], AccurateRip returned [E29C6124] (AR v2)
Track 21 cannot be verified as accurate (confidence 2) [47FED45D], AccurateRip returned [6274DA2B] (AR v2)
Track 22 cannot be verified as accurate (confidence 2) [368F60EA], AccurateRip returned [2DEC7750] (AR v2)
Track 23 cannot be verified as accurate (confidence 2) [A7626ED0], AccurateRip returned [3E1D6542] (AR v2)
Track 24 cannot be verified as accurate (confidence 2) [C9EA4AEF], AccurateRip returned [37F6B868] (AR v2)
Track 25 cannot be verified as accurate (confidence 2) [A5F60A90], AccurateRip returned [F4F559C6] (AR v2)
Track 26 cannot be verified as accurate (confidence 2) [181546DA], AccurateRip returned [05BD6F34] (AR v2)
Track 27 cannot be verified as accurate (confidence 2) [41BA0E10], AccurateRip returned [4E1D41C9] (AR v2)
Track 28 cannot be verified as accurate (confidence 2) [0FA80EDB], AccurateRip returned [C448DEE0] (AR v2)
Track 29 cannot be verified as accurate (confidence 2) [423EC0D9], AccurateRip returned [FEA4159B] (AR v2)
Track 30 cannot be verified as accurate (confidence 2) [4CEE1D3B], AccurateRip returned [E471BF0C] (AR v2)
Track 31 cannot be verified as accurate (confidence 2) [35CF4CEB], AccurateRip returned [FD5B286B] (AR v2)
Track 32 cannot be verified as accurate (confidence 2) [7F9B1CBC], AccurateRip returned [C53EE2D3] (AR v2)
Track 33 cannot be verified as accurate (confidence 2) [791ED0E9], AccurateRip returned [35E64BBB] (AR v2)
Track 34 cannot be verified as accurate (confidence 2) [48D0E8C5], AccurateRip returned [DD94498E] (AR v2)
Track 35 cannot be verified as accurate (confidence 2) [7A336EC1], AccurateRip returned [F93D48B5] (AR v2)
No tracks could be verified as accurate
You may have a different pressing from the one(s) in the database
End of status report
---- CUETools DB Plugin V2.1.3
[CTDB TOCID: orbpRySUZzFva72QcYCJTyp.3sM-] disk not present in database, Submit result: discs with pregaps not supported in this protocol version
==== Log checksum 72539D96C8F23754725EAB56AA0EE6CCA5524A08D9EDE433866C6B5E8A692BD8 ====

Содержание индексной карты (.CUE)

CD1

REM GENRE Opera
REM DATE 1994
REM DISCID 910C071B
REM COMMENT "ExactAudioCopy v1.0b3"
CATALOG 0000000000000
PERFORMER "Massenet"
TITLE "Griselidis, Fournillier) CD1"
FILE "Massenet - Griselidis, Fournillier) CD1.ape" WAVE
TRACK 01 AUDIO
TITLE "Prologue: Prelude"
PERFORMER "Massenet"
ISRC DEC989200681
INDEX 00 00:00:00
INDEX 01 00:00:32
TRACK 02 AUDIO
TITLE "Prologue: Ouvrez - Vous Sur Mon Front, Portes Du Paradis (Alain)"
PERFORMER "Massenet"
ISRC DEC989200682
INDEX 01 01:34:55
TRACK 03 AUDIO
TITLE "Prologue: Prieur, De Ces Cotes, On L'Aura Vu (Gondebaud - Le Prieur - Alain)"
PERFORMER "Massenet"
ISRC DEC989200683
INDEX 01 02:54:72
TRACK 04 AUDIO
TITLE "Prologue: Voir Griselidis, C'Est Connaitre (Alain)"
PERFORMER "Massenet"
ISRC DEC989200684
INDEX 01 04:28:00
TRACK 05 AUDIO
TITLE "Prologue: Ah! Voyez Le Arquis! (Gondebaud - Le Prieur - Le Marquis)"
PERFORMER "Massenet"
ISRC DEC989200685
INDEX 01 06:20:22
TRACK 06 AUDIO
TITLE "Prologue: Toi Qui Portes La Paix (Le Marquis)"
PERFORMER "Massenet"
ISRC DEC989200686
INDEX 01 08:03:67
TRACK 07 AUDIO
TITLE "Prologue: A Volonte Du Ciel, Sans Doute, Etant La Votre (Griselidis - Le Marq..."
PERFORMER "Massenet"
ISRC DEC989200687
INDEX 01 09:06:17
TRACK 08 AUDIO
TITLE "Prologue: Fermez - Vous Sur Mon Front, Portes Du Paradis! (Alain)"
PERFORMER "Massenet"
ISRC DEC989200688
INDEX 01 12:04:62
TRACK 09 AUDIO
TITLE "Act One: Prelude"
PERFORMER "Massenet"
INDEX 00 12:59:45
INDEX 01 13:09:42
TRACK 10 AUDIO
TITLE "Act One: En Avigono, Pays D'Amour (Bertrade)"
PERFORMER "Massenet"
ISRC DEC989200690
INDEX 01 14:27:22
TRACK 11 AUDIO
TITLE "Act One: Chut! Les Chansons D'Amour Ont Fait Leur Temps"
PERFORMER "Massenet"
ISRC DEC989200691
INDEX 01 16:47:30
TRACK 12 AUDIO
TITLE "Act One: Ah! D'Un Regret Cruel (Le Marquis - Le Prieur)"
PERFORMER "Massenet"
ISRC DEC989200692
INDEX 01 18:15:07
TRACK 13 AUDIO
TITLE "Act One: Que Dis-Tu? Traiter En Prisonniere Griselidis (Le Marquis - Le Prieur)"
PERFORMER "Massenet"
ISRC DEC989200693
INDEX 01 19:46:15
TRACK 14 AUDIO
TITLE "Act One: Monseigneur, Me Voila! (Le Diable - Le Prieur - Le Marquis)"
PERFORMER "Massenet"
ISRC DEC989200694
INDEX 01 22:18:05
TRACK 15 AUDIO
TITLE "Act One: J'Avais Fait, Comme On Dit, Le Diable Sur La Terre (Le Diable - Le P..."
PERFORMER "Massenet"
ISRC DEC989200695
INDEX 01 23:03:52
TRACK 16 AUDIO
TITLE "Act One: Pour Que Nul Ne Dise Que Je Doute ( Le Marquis - Le Diable)"
PERFORMER "Massenet"
ISRC DEC989200696
INDEX 01 25:20:57
TRACK 17 AUDIO
TITLE "Act One: C'Est Peu Pour Le Soldat De Quitter Sa Demeure ( Le Marquis)"
PERFORMER "Massenet"
ISRC DEC989200697
INDEX 01 26:45:42
TRACK 18 AUDIO
TITLE "Act One: Griselidis! - Pardon, Monseigneur Et Mon Maitre! (Le Marquis - Grise..."
PERFORMER "Massenet"
ISRC DEC989200698
INDEX 01 29:45:47
TRACK 19 AUDIO
TITLE "Act One: Serment; Devant Le Soleil Clair (Griselidis - Le Marquis)"
PERFORMER "Massenet"
ISRC DEC989200699
INDEX 01 32:02:07
TRACK 20 AUDIO
TITLE "Act One: Toi, Dont Pour Le Faix Lourd Des Armes (La Marquis)"
PERFORMER "Massenet"
ISRC DEC989200700
INDEX 01 35:23:42
TRACK 21 AUDIO
TITLE "Act One: Bertrade, Reprenons La Page Commencee (Griselidis - Bertrade)"
PERFORMER "Massenet"
ISRC DEC989200701
INDEX 01 39:13:17
TRACK 22 AUDIO
TITLE "Act Two: Entr'Act - Idylle"
PERFORMER "Massenet"
INDEX 00 40:55:40
INDEX 01 40:59:15
TRACK 23 AUDIO
TITLE "Act Two: Jusqu'Ici, Sans Dangers, J'Ai Pu Vivre Invisible (Le Diable)"
PERFORMER "Massenet"
ISRC DEC989200703
INDEX 01 42:58:40
TRACK 24 AUDIO
TITLE "Act Two: Loin De Sa Femme Qu'On Est Bien (Le Diable)"
PERFORMER "Massenet"
ISRC DEC989200704
INDEX 01 44:01:57
TRACK 25 AUDIO
TITLE "Act Two: Quand Les Chats N'Y Sont Pas (Le Diable - Fiamina)"
PERFORMER "Massenet"
ISRC DEC989200705
INDEX 01 46:29:62
TRACK 26 AUDIO
TITLE "Act Two: Belitre! - Drolesse! (Le Diable - Fiamina)"
PERFORMER "Massenet"
ISRC DEC989200706
INDEX 01 48:06:27
TRACK 27 AUDIO
TITLE "Act Two: Mon Epoux! Mon Tresor!"
PERFORMER "Massenet"
ISRC DEC989200707
INDEX 01 50:16:00

CD2

REM GENRE Opera
REM DATE 1994
REM DISCID 24105123
REM COMMENT "ExactAudioCopy v1.0b3"
CATALOG 0000000000000
PERFORMER "Massenet"
TITLE "Griselidis, Fournillier) CD2"
FILE "Massenet - Griselidis, Fournillier) CD2.ape" WAVE
TRACK 01 AUDIO
TITLE "Act Two: La Mer! Et Sur Les Flots Toujours Bleux (Griselidis)"
PERFORMER "Massenet"
ISRC DEC989200708
INDEX 00 00:00:00
INDEX 01 00:00:32
TRACK 02 AUDIO
TITLE "Act Two: Il Partit Au Printemps! (Griselidis)"
PERFORMER "Massenet"
ISRC DEC989200709
INDEX 01 01:22:37
TRACK 03 AUDIO
TITLE "Act Two: O Seigneur, Je Vous Prie (Griselidis)"
PERFORMER "Massenet"
ISRC DEC989200710
INDEX 01 05:03:25
TRACK 04 AUDIO
TITLE "Act Two: Je Vous Salue, Marie"
PERFORMER "Massenet"
ISRC DEC989200711
INDEX 01 06:57:02
TRACK 05 AUDIO
TITLE "Act Two: Madame, Un Etranger (Bertrade - Griselidis - Le Diable - Fiamina)"
PERFORMER "Massenet"
ISRC DEC989200712
INDEX 01 08:34:10
TRACK 06 AUDIO
TITLE "Act Two: Merci Du Grand Honneur (Le Diable - Fiamina - Griselidis)"
PERFORMER "Massenet"
ISRC DEC989200713
INDEX 01 09:33:15
TRACK 07 AUDIO
TITLE "Act Two: Quand Nous Vimes Le Marquis (Le Diable - Fiamina - Le Diable)"
PERFORMER "Massenet"
ISRC DEC989200714
INDEX 01 12:09:55
TRACK 08 AUDIO
TITLE "Act Two: J'Obeirai. Voici L'Anneau (Griselidis - Fiamina - Le Diable)"
PERFORMER "Massenet"
ISRC DEC989200715
INDEX 01 14:30:42
TRACK 09 AUDIO
TITLE "Act Two: Mon Cher Eqoux, Qu'En Dis-Vous? (Fiamina - Le Diable)"
PERFORMER "Massenet"
ISRC DEC989200716
INDEX 01 16:33:62
TRACK 10 AUDIO
TITLE "Act Two: Des Bois Obscurs, Des Blaches Greves (Le Diable)"
PERFORMER "Massenet"
ISRC DEC989200716
INDEX 01 18:26:45
TRACK 11 AUDIO
TITLE "Act Two: Appearance And Waltz Of The Spirits"
PERFORMER "Massenet"
ISRC DEC989200718
INDEX 01 20:47:25
TRACK 12 AUDIO
TITLE "Act Two: Et Montant, Sous Les Cieux Deserts (Le Diable)"
PERFORMER "Massenet"
ISRC DEC989200719
INDEX 01 21:50:42
TRACK 13 AUDIO
TITLE "Act Two: Vous, Qui Portez En Vous L'Ame Auguste Des Reves (Le Diable)"
PERFORMER "Massenet"
ISRC DEC989200720
INDEX 01 22:57:45
TRACK 14 AUDIO
TITLE "Act Two: Je Suis L'Oiseau Que Le Frisson D'Hiver (Alain)"
PERFORMER "Massenet"
ISRC DEC989200721
INDEX 01 24:24:10
TRACK 15 AUDIO
TITLE "Act Two: Le Reve A Fui Mon Front (Griselidis - Alain)"
PERFORMER "Massenet"
ISRC DEC989200722
INDEX 01 26:55:55
TRACK 16 AUDIO
TITLE "Act Two: Griselidis, Ecoute Moi! (Amain - Griselidis )"
PERFORMER "Massenet"
ISRC DEC989200723
INDEX 01 29:51:55
TRACK 17 AUDIO
TITLE "Act Two: Laisse - Moi! (Griselidis - Alain - Le Diable)"
PERFORMER "Massenet"
ISRC DEC989200723
INDEX 01 32:29:32
TRACK 18 AUDIO
TITLE "Act Two: Doux Reves De Jadis! (Alain - Griselidis)"
PERFORMER "Massenet"
ISRC DEC989200725
INDEX 01 35:06:52
TRACK 19 AUDIO
TITLE "Act Two: Ah! Loys! Ou Donc Es-Tu? (Griselidis - Bertrade - Le Diable)"
PERFORMER "Massenet"
ISRC DEC989200726
INDEX 01 35:43:12
TRACK 20 AUDIO
TITLE "Act Three: Prelude"
PERFORMER "Massenet"
INDEX 00 37:31:23
INDEX 01 37:35:70
TRACK 21 AUDIO
TITLE "Act Three: Priere; Loys! Loys! Des Larmes Brulent Ma Paupiere! (Griselidis - ..."
PERFORMER "Massenet"
ISRC DEC989200728
INDEX 01 38:22:70
TRACK 22 AUDIO
TITLE "Act Three: Madame, A Vos Ordres (Le Diable - Griselidis)"
PERFORMER "Massenet"
ISRC DEC989200728
INDEX 01 42:17:37
TRACK 23 AUDIO
TITLE "Act Three: Le Corsaire Est Galant, Madame (Le Diable - Griselidis)"
PERFORMER "Massenet"
ISRC DEC989200730
INDEX 01 43:04:55
TRACK 24 AUDIO
TITLE "Act Three: En Comportant Ceci Que Pour Me Garder Mieux (Griselidis - Le Diable)"
PERFORMER "Massenet"
ISRC DEC989200730
INDEX 01 44:55:35
TRACK 25 AUDIO
TITLE "Act Three: Le Marquis, A Present! (Le Diable - Le Marquis)"
PERFORMER "Massenet"
ISRC DEC989200732
INDEX 01 46:28:42
TRACK 26 AUDIO
TITLE "Act Three: A Present Devant Ta Demeure (Le Marquis)"
PERFORMER "Massenet"
ISRC DEC989200733
INDEX 01 50:35:00
TRACK 27 AUDIO
TITLE "Act Three: Avant De Vous Parler (Griselidis - Le Marquis)"
PERFORMER "Massenet"
ISRC DEC989200734
INDEX 01 52:45:45
TRACK 28 AUDIO
TITLE "Act Three: Loin Qu' Elle Te Pardonne (Griselidis)"
PERFORMER "Massenet"
ISRC DEC989200735
INDEX 01 57:33:05
TRACK 29 AUDIO
TITLE "Act Three: Comme Au Bord Des Ruisseaux (Le Marquis - Griselidis)"
PERFORMER "Massenet"
ISRC DEC989200736
INDEX 01 58:14:07
TRACK 30 AUDIO
TITLE "Act Three: Eh Bien! C'Est Du Joli! (Le Diable - Griselidis - Le Marquis)"
PERFORMER "Massenet"
ISRC DEC989200737
INDEX 01 60:02:17
TRACK 31 AUDIO
TITLE "Act Three: L'Heure Cruelle, Helas! (Griselidis - Le Marquis)"
PERFORMER "Massenet"
ISRC DEC989200738
INDEX 01 60:46:15
TRACK 32 AUDIO
TITLE "Act Three: Des Armes! Des Armes (Le Marquis - Griselidis)"
PERFORMER "Massenet"
ISRC DEC989200739
INDEX 01 62:53:00
TRACK 33 AUDIO
TITLE "Act Three: O Croix Sainte, Immortelle Flamme (Griselidis - Le Marquis)"
PERFORMER "Massenet"
ISRC DEC989200740
INDEX 01 64:12:47
TRACK 34 AUDIO
TITLE "Act Three: Par Cette Criox Qui Nous Defend - O Sainte Agnes! (Le Marquis - Gr..."
PERFORMER "Massenet"
ISRC DEC989200741
INDEX 01 66:09:72
TRACK 35 AUDIO
TITLE "Act Three: Magnificat Anima Mea (Le Marquis - Griselidis - Le Diable)"
PERFORMER "Massenet"
ISRC DEC989200742
INDEX 01 67:33:17
Доп. информация:
If the recent interest shown by British opera houses in Massenet’s more obscure operas persists, then this excellent live recording from the 1992 Festival Massenet in St Etienne ought to make Grisélidis a contender for revival. Based on a story from Boccaccio’s Decameron, it is an enchanting treatment of an archly moral tale in which the Devil – a comic role – endeavours vainly to lead the virtuous Grisélidis astray, while her husband is away on a crusade.
Musically, it is a very attractive and complex – if slightly tricksy – work: the Devil and his wife, Fiamina, are characterised by neo-classical music (indicative of his ‘Enlightened’ ways?) reminiscent of opera buffa, while Grisélidis, her husband and her shepherd suitor, Alain, have more contemporary music, reminiscent, at times, both of Pelléas, in its ability to evoke something shadowy and magical, and Puccini, in its expansive rapture.
Orchestrally there are also glorious pastoral passages, marvellously played by the Orchestre Symphonique Franz Liszt.
But if the score risks seeming contrived and forced, the performances are so fervent and true that the danger is avoided.
Michèle Command is a creamy-voiced Grisélidis, touching and tormented in her duets with Jean-Luc Viala’s ardent Alain; while Jean-Philippe Courtis’s doughtily sung Devil and Claire Larcher’s striking Fiamina are characteristically, but not vocally, crude and conniving.



Показать сообщения:    

Текущее время: 04-Дек 04:57

Часовой пояс: UTC + 3


Вы не можете начинать темы
Вы не можете отвечать на сообщения
Вы не можете редактировать свои сообщения
Вы не можете удалять свои сообщения
Вы не можете голосовать в опросах
Вы не можете прикреплять файлы к сообщениям
Вы не можете скачивать файлы