Путь Махатмы Ганди / The road to freedom (Эмили Дэвис / Emily Davis) [2009, Документальный, история, биография, IPTVRip]


Статистика раздачи [Обновить пиров]
Размер:  800 MB   |    Зарегистрирован:  8 месяцев 19 дней   |    Скачан:  0 раз
Сидов:  1  [  0 KB/s  ]   Личеров:  3  [  0 KB/s  ]   Подробная статистика пиров
 
   
 
 
 

[Цитировать]

Путь Махатмы Ганди / The road to freedom
Дата/Год выпуска: 2009
Страна: Великобритания, ВВС
Жанр: Документальный, история, биография
Продолжительность: 00:51:49
Перевод: Профессиональный (дублированный)
Доп. инфо о переводе: Алиса Хайзина
Русские субтитры: нет
Оригинальная аудиодорожка: нет
Режиссер: Эмили Дэвис / Emily Davis
Телеканал: Viasat History
Описание: Фильм рассказывает о жизни Ганди, о его взаимоотношениях с женой, о его неоднозначных взглядах на расовые различия, а также о его роли в борьбе за независимость Индии от Великобритании. В масштабах мировой арены Мартин Лютер Кинг, Далай -Лама и другие миротворцы следовали по стопам Ганди. Не смотря на то, что Ганди, несомненно, является отцом нации, существует сторона, о которой никто прежде не знал. Данная программа рассказывает о начале становления Ганди как политика и его кампании за независимость Индии.
Сэмпл: http://multi-up.com/1023954
качество: IPTVRip
формат: AVI
Видео: 720x400 (1.80:1), 25 fps, XviD build 66 ~1956 kbps avg, 0.27 bit/pixel
Аудио: 48 kHz, AC3 Dolby Digital, 2/0 (L,R) ch, ~192 kbps

MediaInfo

General
Complete name : E:\Pshichko66\Na zapis'\Документальные фильмы\Put' Mahatmy Gandi. Put' k svobode.avi
Format : AVI
Format/Info : Audio Video Interleave
File size : 800 MiB
Duration : 51mn 49s
Overall bit rate : 2 159 Kbps
Writing application : VirtualDubMod 1.5.10.2 (build 2540/release)
Writing library : VirtualDubMod build 2540/release
Video
ID : 0
Format : MPEG-4 Visual
Format profile : Advanced Simple@L5
Format settings, BVOP : 2
Format settings, QPel : No
Format settings, GMC : No warppoints
Format settings, Matrix : Custom
Codec ID : XVID
Codec ID/Hint : XviD
Duration : 51mn 49s
Bit rate : 1 957 Kbps
Width : 720 pixels
Height : 400 pixels
Display aspect ratio : 16:9
Frame rate : 25.000 fps
Color space : YUV
Chroma subsampling : 4:2:0
Bit depth : 8 bits
Scan type : Progressive
Compression mode : Lossy
Bits/(Pixel*Frame) : 0.272
Stream size : 726 MiB (91%)
Writing library : XviD 66
Audio
ID : 1
Format : AC-3
Format/Info : Audio Coding 3
Mode extension : CM (complete main)
Format settings, Endianness : Big
Codec ID : 2000
Duration : 51mn 49s
Bit rate mode : Constant
Bit rate : 192 Kbps
Channel count : 2 channels
Channel positions : Front: L R
Sampling rate : 48.0 KHz
Bit depth : 16 bits
Compression mode : Lossy
Stream size : 71.2 MiB (9%)
Alignment : Split accross interleaves
Interleave, duration : 40 ms (1.00 video frame)
Interleave, preload duration : 500 ms

Скриншоты

[teatrix.ru].t19960.torrent 
Торрент: Зарегистрирован [ 2016-03-19 00:38 ] · 35A0E521A8A7A5AF385A2FB6048EAE17692764D5

Скачать .torrent

Скачать

16 KB

Статус: проверено
Скачан: 0 раз
Размер: 800 MB
terms.php



Быстрый ответ

Имя:

      
Для отправки сообщений необходимо включить JavaScript
Показать сообщения:    

Текущее время: 07-Дек 13:39

Часовой пояс: UTC + 3


Вы можете начинать темы
Вы можете отвечать на сообщения
Вы не можете редактировать свои сообщения
Вы не можете удалять свои сообщения
Вы не можете голосовать в опросах
Вы не можете прикреплять файлы к сообщениям
Вы можете скачивать файлы