(Classical) Fin de Siecle - Vocal Music by Grieg • Wolf • Wagner • Liszt • Tchaikovsky/Чайковский • Reger • Gounod • Faure • Debussy (Flagstad, Schietz, Lubin, Schlusnus, Rethberg) - 2004, APE (image+.cue) lossless


 

[Цитировать]

Quadromania, Fin de Siecle - Vocal Music by Grieg • Wolf • Wagner • Liszt • Tchaikovsky
Жанр: Classical
Страна-производитель диска: Germany
Год издания диска: 2004
Издатель (лейбл): Membran
Номер по каталогу: 222215-444
Дата записи: 1925-1954
Аудиокодек: APE
Тип рипа: image+.cue
Битрейт аудио: lossless
Продолжительность: 57'23+64'10+45'37+69'16
Источник: собственный рип
Наличие сканов в содержимом раздачи: да
Треклист/Исполнители:
Grieg (CD1)
Edvard Grieg (1843-1907)
1. Med en primulaveris, op. 26 No. 4 (paulsen)
2. 0g jeg vil ha mig en hjertenskjaer, op 60 No. 5 (Krag)
3. Eros, op. 70 No. 1 (Benzon) recorded in 1948
4. En svane, op. 25 No. 2 (Ibsen)
5. Ein Traum, op. 48 No. 6 (von Bodenstedt)
6. Tak for dit rád. op. 21 No. 6 (Bjornson)
7. Ved Rundarne, op. 33 No. 3 (Vinje)
8. Den seerde. op. 33 No. 3
9. Med en vandlilje, op. 25 No. 4 (Ibsen)
10. Prinsessen, op. 41 No. 5 (Bjornson)
11. Váren. op. 33 No. 2 (Vinje)
12. Fra Monte Pincia, op. 39 No. 1 (Bjornson)
13. Guten op. 33, No. 1 (Vinje)
Kirsten Flagstad (soprano), Edwin McArthur (1, 2) & Gerald Moore (9, 10) (piano)
The Philharmonia Orchestra, Warwick Braithwaite & Walter Susskind (11) (conductors), recorded in 1937 (1, 2) and in 1948
14. Ta brune onje, op. 5 No. 1 (Andersen)
15. Jeg elsker dig, op. 5 No. 3 (Andersen)
16. Ved Ronderne, op. 33 No. 9 (Vinje)
17. Váren. op. 33 No.
18. Udfarten, op. 9 No. 4 (Munch)
Aksel Schietz (tenor), Folmer Jensen (piano), recorded in 1943Wolf (CD2)
Hugo Wolf (1860-1903)
1. Epiphanias (Goethe)
Heinrich Schlusnus (baritone), Franz Rupp (piano), recorded in 1927
2. Verborgenheit (Mörike)
Josef von Manowarda (bass), Arpad Sandor (piano), recorded in 1930
3, Nun wand're Maria (Geibel, Heyse)
4. Um Mitternacht (Mörike)
Germaine Lubin (soprano), recorded in 1954
ITALIENISCHES LlEDERBUCH (Heyse)
5. No. 29 Wohl kenn' ich euren Stand
6. No, 21 Man sagt mir
7. No. 36 Wenn du, mein Liebster
8. No. II Wie lange schon
9. No. 28 Du sagst mir
10. No. 26 Ich liess mir sagen
11. No. 32 Was soll der Zorn
12. No. 24 Ich esse nun mein Brot
13. No. 31 Wie soll ich fröhlich sein
SPANISCHES LlEDERBUCH NO.7 (Geibel, Heyse)
14. Mühevoll kornm' ich und beladen
Elisabeth Rethberg (soprano), Coenraad Bos (piano), recorded in 1934
15. Schlafendes Jesukind (Mörike)
16. Nun wand're Maria (Geibel, Heyse)
17. Gebet (Mörike)
18. Verborgenheit (Mörike)
19. Zum neuen Jahr (Mörike)
20. Andenken (Matthisson)
21. Auf ein altes Bild (Mörike)
22. Frohe Botschaft (Reinick)
Karl Erb (tenor), Bruno Seidler-Winkler (piano), recorded in 1935 (15-19) and 1937 (20-22)
23. Die Geister am Mummelsee(Wolf)
24. Der Sänger (Goethe)
Ludwig Weber (bass), Gerald Moore (piano)Wagner • Liszt • Tchaikovsky • Reger (CD3)
Richard Wagner (1813-1883)
WESENDONCK LlEDER
1. No. 1 Der Engel
2. No. 2 Stehe still
3. No. 3 Im Treibhaus
4. No. 4 Sehmerzen
5. No. 5 Träume
Kirsten Flagstad (soprano), Gerald Moore (piano) recorded in 1948
Franz Liszt (1811-1886)
6. Es muss ein Wunderbares sein (Redwitz)
Karl Erb (tenor), Walter Lutz (cello), Bruno Seidler-Winkler (piano), recorded in 1937
7. Die drei Zigeuner
Theodor Scheidl (baritone), Franz Rupp (piano), recorded in 1930
8. Freudvoll und leidvoll (Goethe)
9. Es muss ein Wunderbares sein (Redwitz)
10. Nimm einen Strahl der Sonne (Rellstab)
Pierre Bernac (baritone), Francis Poulenc (piano) recorded in 1938
Peter Tchaikovsky (1840-1893)
11. Lied der Mignon: Nur wer die Sehnsucht kennt, op. 6 No. 6 (Goethe)
Elisabeth Rethberg (soprano), Willem Willeke (cello), victor Symphony Orchestra, Rosario Burdon (conductor), recorded in 1925
12. Pendant le bal, op. 38 No. 8 (Toistoi)
13. Lied der Mignon: Ah! Oui brula d'arnour; op. 6 NO.6 (Goethe)
Gérard Souzay (bariton), Irène Aitoff (piano), recorded in 1948
Max Reger (1873-1916)
14. Des Kindes Gebet. op. 76 NO.22
15. Herzenstauseh, op. 76 No. 5
Walther Ludwig (tenor), Sebastian Peschko (piano) recorded in 1939Gounod • Fauré • Debussy (CD4)
Charles Gounod (1818-1893)
1. À la brise (Barbier)
2. Ouanti mai (Metastasio)
3. 0 ma belle rebelle
4. Absence (de Ségur)
5. Mignon (Gallet/Goethe)
Gérard Souzay (baritone). Irène Aitoff
(piano), recorded in 1947 (1-3) and 1948 (4, 5)
6. Sérénade (Hugo)
Pierre Bernac (baritone), Francis Poulenc (piano), recorded in 1945
Gabriel Fauré (1845-1924)
7. Aprés un rève. op. 7 No. 1 (Bussine)
8. Le secret, op. 23 No. 3 (Silvestre), recorded in 1947
9. Aurore, op. 39 No. 1 (Silvestre)
10. Prison, op .. 83 No. 1 (Verlaine)
11. Soir op. 83 No. 2 (Samain) recorded in 1947
12. Jardin nocturne, op. 113 No. 3 (de Brimont)
Pierre Bernac (tenor), Francis Poulenc (piano), recorded in 1936 (10, 12), in 1940 (7) and 1947 (8, 9,11)
13. Clair de Lune op, 45, NO.2 (Verlaine)
14. En sourdine op. 58, NO.2 (Verlaine)
Gérard Souzay (baritone), Jacqueline Bonneau (piano), recorded in 1946
Claude Debussy (1862-1918)
ARIETTES OUBLIÉES (Paul Verlaine)
15, C'est l'extase langoureuse
16. Il pleure dans mon coeur
17. L'ombre des arbres
18. Chevaux de bois
19. Green
20. Spleen
FÊTES GALANTES
(1re recueil) (Paul Verlaine)
21. En sourdine
22. Fantoches
23. Clair de lune
TROIS CHANSONS DE BILITIS
(Pierre Louys]
24. La flûte de Pan
25. Le chevelure
26. Le tombeau de naïades
Suzanne Danco (soprano), Guido Agosti (piano), recorded in 1950 (15-20,24-26) and 1954 (21-23)

Лог создания рипа

CD1

Exact Audio Copy V1.0 beta 3 from 29. August 2011
EAC extraction logfile from 1. January 2015, 12:25
Grieg / Fin de siecle CD1
Used drive : TSSTcorpCDDVDW SE-208AB Adapter: 1 ID: 0
Read mode : Secure
Utilize accurate stream : Yes
Defeat audio cache : Yes
Make use of C2 pointers : No
Read offset correction : 6
Overread into Lead-In and Lead-Out : No
Fill up missing offset samples with silence : Yes
Delete leading and trailing silent blocks : No
Null samples used in CRC calculations : Yes
Used interface : Native Win32 interface for Win NT & 2000
Used output format : Monkey's Audio Lossless Encoder
Selected bitrate : High Lossless Compression
Quality : High
Add ID3 tag : Yes
Command line compressor : C:\Program Files (x86)\Exact Audio Copy\MAC\MAC.exe
TOC of the extracted CD
Track | Start | Length | Start sector | End sector
---------------------------------------------------------
1 | 0:00.00 | 2:11.37 | 0 | 9861
2 | 2:11.37 | 1:26.45 | 9862 | 16356
3 | 3:38.07 | 3:12.64 | 16357 | 30820
4 | 6:50.71 | 3:26.32 | 30821 | 46302
5 | 10:17.28 | 2:23.41 | 46303 | 57068
6 | 12:40.69 | 1:09.09 | 57069 | 62252
7 | 13:50.03 | 3:21.65 | 62253 | 77392
8 | 17:11.68 | 4:09.59 | 77393 | 96126
9 | 21:21.52 | 2:31.41 | 96127 | 107492
10 | 23:53.18 | 3:08.60 | 107493 | 121652
11 | 27:02.03 | 6:23.59 | 121653 | 150436
12 | 33:25.62 | 5:59.11 | 150437 | 177372
13 | 39:24.73 | 2:59.48 | 177373 | 190845
14 | 42:24.46 | 1:12.16 | 190846 | 196261
15 | 43:36.62 | 1:32.35 | 196262 | 203196
16 | 45:09.22 | 2:51.57 | 203197 | 216078
17 | 48:01.04 | 4:23.67 | 216079 | 235870
18 | 52:24.71 | 4:56.53 | 235871 | 258123
Range status and errors
Selected range
Filename D:\EAC\Grieg - Fin de siecle CD1.wav
Peak level 100.0 %
Extraction speed 4.5 X
Range quality 100.0 %
Test CRC FC19A9C4
Copy CRC FC19A9C4
Copy OK
No errors occurred
AccurateRip summary
Track 1 accurately ripped (confidence 1) [05F5AFDA] (AR v1)
Track 2 accurately ripped (confidence 1) [8732E1AA] (AR v1)
Track 3 accurately ripped (confidence 1) [004FE85A] (AR v1)
Track 4 accurately ripped (confidence 1) [104648B6] (AR v1)
Track 5 accurately ripped (confidence 1) [6660D4E1] (AR v1)
Track 6 accurately ripped (confidence 1) [8B650FFE] (AR v1)
Track 7 accurately ripped (confidence 1) [53E1FDDA] (AR v1)
Track 8 accurately ripped (confidence 1) [7DB0DC42] (AR v1)
Track 9 accurately ripped (confidence 1) [0A787D38] (AR v1)
Track 10 accurately ripped (confidence 1) [5797F480] (AR v1)
Track 11 accurately ripped (confidence 1) [1DED3E54] (AR v1)
Track 12 accurately ripped (confidence 1) [DAD226EC] (AR v1)
Track 13 accurately ripped (confidence 1) [0B96812F] (AR v1)
Track 14 accurately ripped (confidence 1) [C363DDBF] (AR v1)
Track 15 accurately ripped (confidence 1) [D12B207E] (AR v1)
Track 16 accurately ripped (confidence 1) [779C41DE] (AR v1)
Track 17 accurately ripped (confidence 1) [A537E186] (AR v1)
Track 18 accurately ripped (confidence 1) [66EAA3F8] (AR v1)
All tracks accurately ripped
End of status report
---- CUETools DB Plugin V2.1.3
[CTDB TOCID: dAjYDXEdgQyOaiCwp2fg9yawVps-] found, Submit result: dAjYDXEdgQyOaiCwp2fg9yawVps- has been confirmed
[fc1c8cb3] (3/3) Accurately ripped
==== Log checksum 0B5E261D46C890F72E1C6AAEFB3AE9D1F1FCC80B0743319C6371B48B336C353B ====

CD2

Exact Audio Copy V1.0 beta 3 from 29. August 2011
EAC extraction logfile from 1. January 2015, 12:37
Wolf / Fin de siecle CD2
Used drive : TS8XDVDSTRANSCEND Adapter: 1 ID: 1
Read mode : Secure
Utilize accurate stream : Yes
Defeat audio cache : Yes
Make use of C2 pointers : No
Read offset correction : 6
Overread into Lead-In and Lead-Out : No
Fill up missing offset samples with silence : Yes
Delete leading and trailing silent blocks : No
Null samples used in CRC calculations : Yes
Used interface : Native Win32 interface for Win NT & 2000
Used output format : Monkey's Audio Lossless Encoder
Selected bitrate : High Lossless Compression
Quality : High
Add ID3 tag : Yes
Command line compressor : C:\Program Files (x86)\Exact Audio Copy\MAC\MAC.exe
TOC of the extracted CD
Track | Start | Length | Start sector | End sector
---------------------------------------------------------
1 | 0:00.00 | 4:41.33 | 0 | 21107
2 | 4:41.33 | 3:10.12 | 21108 | 35369
3 | 7:51.45 | 2:58.08 | 35370 | 48727
4 | 10:49.53 | 3:16.68 | 48728 | 63495
5 | 14:06.46 | 1:32.25 | 63496 | 70420
6 | 15:38.71 | 0:59.08 | 70421 | 74853
7 | 16:38.04 | 1:32.36 | 74854 | 81789
8 | 18:10.40 | 1:55.61 | 81790 | 90475
9 | 20:06.26 | 1:05.55 | 90476 | 95405
10 | 21:12.06 | 1:25.37 | 95406 | 101817
11 | 22:37.43 | 1:23.29 | 101818 | 108071
12 | 24:00.72 | 1:30.56 | 108072 | 114877
13 | 25:31.53 | 1:43.52 | 114878 | 122654
14 | 27:15.30 | 4:18.44 | 122655 | 142048
15 | 31:33.74 | 3:20.46 | 142049 | 157094
16 | 34:54.45 | 3:11.59 | 157095 | 171478
17 | 38:06.29 | 2:26.09 | 171479 | 182437
18 | 40:32.38 | 2:54.44 | 182438 | 195531
19 | 43:27.07 | 2:46.40 | 195532 | 208021
20 | 46:13.47 | 2:48.30 | 208022 | 220651
21 | 49:02.02 | 2:35.74 | 220652 | 232350
22 | 51:38.01 | 2:01.63 | 232351 | 241488
23 | 53:39.64 | 4:16.61 | 241489 | 260749
24 | 57:56.50 | 6:11.22 | 260750 | 288596
Range status and errors
Selected range
Filename D:\EAC\Wolf - Fin de siecle CD2.wav
Peak level 100.0 %
Extraction speed 3.0 X
Range quality 100.0 %
Test CRC 3E4A07D1
Copy CRC 3E4A07D1
Copy OK
No errors occurred
AccurateRip summary
Track 1 accurately ripped (confidence 1) [45F4428F] (AR v1)
Track 2 accurately ripped (confidence 1) [49470459] (AR v1)
Track 3 accurately ripped (confidence 1) [C928AA26] (AR v1)
Track 4 accurately ripped (confidence 1) [C26DC81F] (AR v1)
Track 5 accurately ripped (confidence 1) [0D6C5FBB] (AR v1)
Track 6 accurately ripped (confidence 1) [AD189C3A] (AR v1)
Track 7 accurately ripped (confidence 1) [3378FBC2] (AR v1)
Track 8 accurately ripped (confidence 1) [213D99D0] (AR v1)
Track 9 accurately ripped (confidence 1) [885ADD13] (AR v1)
Track 10 accurately ripped (confidence 1) [9B72239D] (AR v1)
Track 11 accurately ripped (confidence 1) [8F70ADBD] (AR v1)
Track 12 accurately ripped (confidence 1) [FFFF1726] (AR v1)
Track 13 accurately ripped (confidence 1) [92886343] (AR v1)
Track 14 accurately ripped (confidence 1) [58C553AE] (AR v1)
Track 15 accurately ripped (confidence 1) [FD4C1C89] (AR v1)
Track 16 accurately ripped (confidence 1) [A0D3B3ED] (AR v1)
Track 17 accurately ripped (confidence 1) [47E6D3E1] (AR v1)
Track 18 accurately ripped (confidence 1) [B72D6CED] (AR v1)
Track 19 accurately ripped (confidence 1) [D3001121] (AR v1)
Track 20 accurately ripped (confidence 1) [B62200A2] (AR v1)
Track 21 accurately ripped (confidence 1) [24484C7F] (AR v1)
Track 22 accurately ripped (confidence 1) [116D936A] (AR v1)
Track 23 accurately ripped (confidence 1) [F09E3CCE] (AR v1)
Track 24 accurately ripped (confidence 1) [A379D61A] (AR v1)
All tracks accurately ripped
End of status report
---- CUETools DB Plugin V2.1.3
[CTDB TOCID: HGAV2xRSpraXJ3gHIa01RCebErQ-] found, Submit result: unrecognized or virtual drive
[8591fb50] (3/3) Accurately ripped
==== Log checksum 5A4464C2D774D7207F4E1EBAD8773DF2FE9C7329DA70F8073033996C7C6428AC ====

CD3

Exact Audio Copy V1.0 beta 3 from 29. August 2011
EAC extraction logfile from 1. January 2015, 12:57
Wagner•Liszt•Tchaikovsky•Reger / Fin de siecle CD3
Used drive : TSSTcorpCDDVDW SE-208AB Adapter: 1 ID: 0
Read mode : Secure
Utilize accurate stream : Yes
Defeat audio cache : Yes
Make use of C2 pointers : No
Read offset correction : 6
Overread into Lead-In and Lead-Out : No
Fill up missing offset samples with silence : Yes
Delete leading and trailing silent blocks : No
Null samples used in CRC calculations : Yes
Used interface : Native Win32 interface for Win NT & 2000
Used output format : Monkey's Audio Lossless Encoder
Selected bitrate : High Lossless Compression
Quality : High
Add ID3 tag : Yes
Command line compressor : C:\Program Files (x86)\Exact Audio Copy\MAC\MAC.exe
TOC of the extracted CD
Track | Start | Length | Start sector | End sector
---------------------------------------------------------
1 | 0:00.00 | 3:49.28 | 0 | 17202
2 | 3:49.28 | 3:59.30 | 17203 | 35157
3 | 7:48.58 | 4:40.61 | 35158 | 56218
4 | 12:29.44 | 2:41.48 | 56219 | 68341
5 | 15:11.17 | 4:34.04 | 68342 | 88895
6 | 19:45.21 | 2:26.18 | 88896 | 99863
7 | 22:11.39 | 4:29.34 | 99864 | 120072
8 | 26:40.73 | 3:06.58 | 120073 | 134080
9 | 29:47.56 | 2:05.08 | 134081 | 143463
10 | 31:52.64 | 0:48.26 | 143464 | 147089
11 | 32:41.15 | 3:10.04 | 147090 | 161343
12 | 35:51.19 | 2:27.09 | 161344 | 172377
13 | 38:18.28 | 3:17.21 | 172378 | 187173
14 | 41:35.49 | 2:05.38 | 187174 | 196586
15 | 43:41.12 | 1:54.02 | 196587 | 205138
Range status and errors
Selected range
Filename D:\EAC\Wagner•Liszt•Tchaikovsky•Reger - Fin de siecle CD3.wav
Peak level 100.0 %
Extraction speed 4.2 X
Range quality 100.0 %
Test CRC 065B5CCE
Copy CRC 065B5CCE
Copy OK
No errors occurred
AccurateRip summary
Track 1 accurately ripped (confidence 1) [7A1CD85E] (AR v1)
Track 2 accurately ripped (confidence 1) [BD724787] (AR v1)
Track 3 accurately ripped (confidence 1) [F19F3031] (AR v1)
Track 4 accurately ripped (confidence 1) [2C7FA23B] (AR v1)
Track 5 accurately ripped (confidence 1) [2B53B4E7] (AR v1)
Track 6 accurately ripped (confidence 1) [A8AEEAB7] (AR v1)
Track 7 accurately ripped (confidence 1) [1917F510] (AR v1)
Track 8 accurately ripped (confidence 1) [3EA432D9] (AR v1)
Track 9 accurately ripped (confidence 1) [7B96CBFF] (AR v1)
Track 10 accurately ripped (confidence 1) [40B94869] (AR v1)
Track 11 accurately ripped (confidence 1) [4F25C9FB] (AR v1)
Track 12 accurately ripped (confidence 1) [2E45B8EE] (AR v1)
Track 13 accurately ripped (confidence 1) [CC2667E1] (AR v1)
Track 14 accurately ripped (confidence 1) [FA4C0D33] (AR v1)
Track 15 accurately ripped (confidence 1) [3F18A2A1] (AR v1)
All tracks accurately ripped
End of status report
---- CUETools DB Plugin V2.1.3
[CTDB TOCID: Eycy7HlW6zZOqigvXkA9iryn728-] found, Submit result: Eycy7HlW6zZOqigvXkA9iryn728- has been confirmed
[cd9bd154] (2/2) Accurately ripped
==== Log checksum B1304C2AA3E200CFBB41BB34577475F120C410A3D5B39FFA0330F2717658B389 ====

CD4

Exact Audio Copy V1.0 beta 3 from 29. August 2011
EAC extraction logfile from 1. January 2015, 13:37
Gounod•Fauré•Debussy / Fin de siecle CD4
Used drive : TS8XDVDSTRANSCEND Adapter: 1 ID: 1
Read mode : Secure
Utilize accurate stream : Yes
Defeat audio cache : Yes
Make use of C2 pointers : No
Read offset correction : 6
Overread into Lead-In and Lead-Out : No
Fill up missing offset samples with silence : Yes
Delete leading and trailing silent blocks : No
Null samples used in CRC calculations : Yes
Used interface : Native Win32 interface for Win NT & 2000
Used output format : Monkey's Audio Lossless Encoder
Selected bitrate : High Lossless Compression
Quality : High
Add ID3 tag : Yes
Command line compressor : C:\Program Files (x86)\Exact Audio Copy\MAC\MAC.exe
TOC of the extracted CD
Track | Start | Length | Start sector | End sector
---------------------------------------------------------
1 | 0:00.00 | 3:04.06 | 0 | 13805
2 | 3:04.06 | 1:40.41 | 13806 | 21346
3 | 4:44.47 | 3:13.36 | 21347 | 35857
4 | 7:58.08 | 3:26.05 | 35858 | 51312
5 | 11:24.13 | 3:21.47 | 51313 | 66434
6 | 14:45.60 | 4:14.15 | 66435 | 85499
7 | 19:00.00 | 2:23.49 | 85500 | 96273
8 | 21:23.49 | 2:06.53 | 96274 | 105776
9 | 23:30.27 | 1:52.09 | 105777 | 114185
10 | 25:22.36 | 2:08.20 | 114186 | 123805
11 | 27:30.56 | 2:07.15 | 123806 | 133345
12 | 29:37.71 | 3:21.55 | 133346 | 148475
13 | 32:59.51 | 2:52.53 | 148476 | 161428
14 | 35:52.29 | 3:31.47 | 161429 | 177300
15 | 39:24.01 | 2:44.10 | 177301 | 189610
16 | 42:08.11 | 2:34.70 | 189611 | 201230
17 | 44:43.06 | 2:22.27 | 201231 | 211907
18 | 47:05.33 | 2:40.63 | 211908 | 223970
19 | 49:46.21 | 1:59.70 | 223971 | 232965
20 | 51:46.16 | 2:15.43 | 232966 | 243133
21 | 54:01.59 | 2:59.00 | 243134 | 256558
22 | 57:00.59 | 1:13.57 | 256559 | 262090
23 | 58:14.41 | 2:58.19 | 262091 | 275459
24 | 61:12.60 | 2:23.12 | 275460 | 286196
25 | 63:35.72 | 3:08.46 | 286197 | 300342
26 | 66:44.43 | 2:29.64 | 300343 | 311581
Range status and errors
Selected range
Filename D:\EAC\Gounod•Fauré•Debussy - Fin de siecle CD4.wav
Peak level 100.0 %
Extraction speed 3.1 X
Range quality 100.0 %
Test CRC 398A1D91
Copy CRC 398A1D91
Copy OK
No errors occurred
AccurateRip summary
Track 1 accurately ripped (confidence 1) [3D293104] (AR v1)
Track 2 accurately ripped (confidence 1) [911E192E] (AR v1)
Track 3 accurately ripped (confidence 1) [E5D8E782] (AR v1)
Track 4 accurately ripped (confidence 1) [E5DF1897] (AR v1)
Track 5 accurately ripped (confidence 1) [16129881] (AR v1)
Track 6 accurately ripped (confidence 1) [38FAB770] (AR v1)
Track 7 accurately ripped (confidence 1) [2FBFA0E1] (AR v1)
Track 8 accurately ripped (confidence 1) [7052C737] (AR v1)
Track 9 accurately ripped (confidence 1) [12198D4E] (AR v1)
Track 10 accurately ripped (confidence 1) [83656654] (AR v1)
Track 11 accurately ripped (confidence 1) [BEE981B7] (AR v1)
Track 12 accurately ripped (confidence 1) [95632C0D] (AR v1)
Track 13 accurately ripped (confidence 1) [746C8D5B] (AR v1)
Track 14 accurately ripped (confidence 1) [14DBFAB9] (AR v1)
Track 15 accurately ripped (confidence 1) [A6A548FE] (AR v1)
Track 16 accurately ripped (confidence 1) [573A5EA7] (AR v1)
Track 17 accurately ripped (confidence 1) [8652B2A0] (AR v1)
Track 18 accurately ripped (confidence 1) [D526D7AB] (AR v1)
Track 19 accurately ripped (confidence 1) [6904E421] (AR v1)
Track 20 accurately ripped (confidence 1) [C5897563] (AR v1)
Track 21 accurately ripped (confidence 1) [15247FEA] (AR v1)
Track 22 accurately ripped (confidence 1) [752CF73D] (AR v1)
Track 23 accurately ripped (confidence 1) [8E77454A] (AR v1)
Track 24 accurately ripped (confidence 1) [30F600D2] (AR v1)
Track 25 accurately ripped (confidence 1) [8E763292] (AR v1)
Track 26 accurately ripped (confidence 1) [C44A4612] (AR v1)
All tracks accurately ripped
End of status report
---- CUETools DB Plugin V2.1.3
[CTDB TOCID: gfkjKngRF40MtaMKAnaHjocF3dY-] found, Submit result: unrecognized or virtual drive
[a9467c67] (1/1) No match
==== Log checksum B26C208E4E3C941200CF627B42881B1B90CB264498C9857C2CBE00ADEB12C282 ====

Содержание индексной карты (.CUE)

CD1

REM ACCURATERIPID 002262d0-01d78160-d90d7112
REM COMMENT "CUETools generated dummy CUE sheet"
PERFORMER "Grieg"
TITLE "Fin de siecle CD1"
REM DATE 2004
REM GENRE "Vocal"
FILE "Grieg - Fin de siecle CD1.ape" WAVE
TRACK 01 AUDIO
PERFORMER "Grieg"
TITLE "Med en primulaveris, op. 26 No. 4"
INDEX 01 00:00:00
TRACK 02 AUDIO
PERFORMER "Grieg"
TITLE "0g jeg vil ha mig en hjertenskjaer, "
INDEX 01 02:11:37
TRACK 03 AUDIO
PERFORMER "Grieg"
TITLE "Eros, op. 70 No. 1"
INDEX 01 03:38:07
TRACK 04 AUDIO
PERFORMER "Grieg"
TITLE "En svane, op. 25 No. 2"
INDEX 01 06:50:71
TRACK 05 AUDIO
PERFORMER "Grieg"
TITLE "Ein Traum, op. 48 No. 6"
INDEX 01 10:17:28
TRACK 06 AUDIO
PERFORMER "Grieg"
TITLE "Tak for dit rád. op. 21 No. 6"
INDEX 01 12:40:69
TRACK 07 AUDIO
PERFORMER "Grieg"
TITLE "Ved Rundarne, op. 33 No. 3"
INDEX 01 13:50:03
TRACK 08 AUDIO
PERFORMER "Grieg"
TITLE "Den seerde. op. 33 No. 3 "
INDEX 01 17:11:68
TRACK 09 AUDIO
PERFORMER "Grieg"
TITLE "Med en vandlilje, op. 25 No. 4"
INDEX 01 21:21:52
TRACK 10 AUDIO
PERFORMER "Grieg"
TITLE "Prinsessen, op. 41 No. 5"
INDEX 01 23:53:18
TRACK 11 AUDIO
PERFORMER "Grieg"
TITLE "Váren. op. 33 No. 2"
INDEX 01 27:02:03
TRACK 12 AUDIO
PERFORMER "Grieg"
TITLE "Fra Monte Pincia, op. 39 No. 1"
INDEX 01 33:25:62
TRACK 13 AUDIO
PERFORMER "Grieg"
TITLE "Guten op. 33, No. 1"
INDEX 01 39:24:73
TRACK 14 AUDIO
PERFORMER "Grieg"
TITLE "Ta brune onje, op. 5 No. 1"
INDEX 01 42:24:46
TRACK 15 AUDIO
PERFORMER "Grieg"
TITLE "Jeg elsker dig, op. 5 No. 3"
INDEX 01 43:36:62
TRACK 16 AUDIO
PERFORMER "Grieg"
TITLE "Ved Ronderne, op. 33 No. 9"
INDEX 01 45:09:22
TRACK 17 AUDIO
PERFORMER "Grieg"
TITLE "Váren. op. 33 No. "
INDEX 01 48:01:04
TRACK 18 AUDIO
PERFORMER "Grieg"
TITLE "Udfarten, op. 9 No. 4"
INDEX 01 52:24:71

CD2

REM ACCURATERIPID 0032cdf6-0368054d-4f0f0718
REM COMMENT "CUETools generated dummy CUE sheet"
PERFORMER "Wolf"
TITLE "Fin de siecle CD2"
REM DATE 2004
REM GENRE "Vocal"
FILE "Wolf - Fin de siecle CD2.ape" WAVE
TRACK 01 AUDIO
PERFORMER "Wolf"
TITLE "Epiphanias"
INDEX 01 00:00:00
TRACK 02 AUDIO
PERFORMER "Wolf"
TITLE "Verborgenheit "
INDEX 01 04:41:33
TRACK 03 AUDIO
PERFORMER "Wolf"
TITLE "Nun wand're Maria"
INDEX 01 07:51:45
TRACK 04 AUDIO
PERFORMER "Wolf"
TITLE "Um Mitternacht"
INDEX 01 10:49:53
TRACK 05 AUDIO
PERFORMER "Wolf"
TITLE "Italian Lieder: No. 29 Wohl kenn' ich euren Stand"
INDEX 01 14:06:46
TRACK 06 AUDIO
PERFORMER "Wolf"
TITLE "No, 21 Man sagt mir"
INDEX 01 15:38:71
TRACK 07 AUDIO
PERFORMER "Wolf"
TITLE "No. 36 Wenn du, mein Liebster"
INDEX 01 16:38:04
TRACK 08 AUDIO
PERFORMER "Wolf"
TITLE "No. II Wie lange schon"
INDEX 01 18:10:40
TRACK 09 AUDIO
PERFORMER "Wolf"
TITLE "No. 28 Du sagst mir"
INDEX 01 20:06:26
TRACK 10 AUDIO
PERFORMER "Wolf"
TITLE "No. 26 Ich liess mir sagen"
INDEX 01 21:12:06
TRACK 11 AUDIO
PERFORMER "Wolf"
TITLE "No. 32 Was soll der Zorn"
INDEX 01 22:37:43
TRACK 12 AUDIO
PERFORMER "Wolf"
TITLE "No. 24 Ich esse nun mein Brot"
INDEX 01 24:00:72
TRACK 13 AUDIO
PERFORMER "Wolf"
TITLE "No. 31 Wie soll ich fröhlich sein"
INDEX 01 25:31:53
TRACK 14 AUDIO
PERFORMER "Wolf"
TITLE "Soanish Lieder: Mühevoll kornm' ich und "
INDEX 01 27:15:30
TRACK 15 AUDIO
PERFORMER "Wolf"
TITLE "Sehlafendes Jesukind"
INDEX 01 31:33:74
TRACK 16 AUDIO
PERFORMER "Wolf"
TITLE "Nun wand're Maria"
INDEX 01 34:54:45
TRACK 17 AUDIO
PERFORMER "Wolf"
TITLE "Gebet "
INDEX 01 38:06:29
TRACK 18 AUDIO
PERFORMER "Wolf"
TITLE "Verborgenheit "
INDEX 01 40:32:38
TRACK 19 AUDIO
PERFORMER "Wolf"
TITLE "Zum neuen Jahr"
INDEX 01 43:27:07
TRACK 20 AUDIO
PERFORMER "Wolf"
TITLE "Andenken "
INDEX 01 46:13:47
TRACK 21 AUDIO
PERFORMER "Wolf"
TITLE "Auf ein altes Bild"
INDEX 01 49:02:02
TRACK 22 AUDIO
PERFORMER "Wolf"
TITLE "Frohe Botschaft"
INDEX 01 51:38:01
TRACK 23 AUDIO
PERFORMER "Wolf"
TITLE "Die Geister am Mummelsee"
INDEX 01 53:39:64
TRACK 24 AUDIO
PERFORMER "Wolf"
TITLE "Der Sänger"
INDEX 01 57:56:50

CD3

REM ACCURATERIPID 001bf834-013408cd-bf0aaf0f
REM COMMENT "CUETools generated dummy CUE sheet"
PERFORMER "Wagner•Liszt•Tchaikovsky•Reger"
TITLE "Fin de siecle CD3"
REM DATE 2004
REM GENRE "Vocal"
FILE "Wagner•Liszt•Tchaikovsky•Reger - Fin de siecle CD3.ape" WAVE
TRACK 01 AUDIO
PERFORMER "Wagner"
TITLE "Wesendonck Lieder: No. 1 Der Engel"
INDEX 01 00:00:00
TRACK 02 AUDIO
PERFORMER "Wagner"
TITLE "No. 2 Stehe still "
INDEX 01 03:49:28
TRACK 03 AUDIO
PERFORMER "Wagner"
TITLE "No. 3 Im Treibhaus"
INDEX 01 07:48:58
TRACK 04 AUDIO
PERFORMER "Wagner"
TITLE "No. 4 Sehmerzen "
INDEX 01 12:29:44
TRACK 05 AUDIO
PERFORMER "Wagner"
TITLE "No. 5 Träume"
INDEX 01 15:11:17
TRACK 06 AUDIO
PERFORMER "Liszt"
TITLE "Es muss ein Wunderbares sein"
INDEX 01 19:45:21
TRACK 07 AUDIO
PERFORMER "Liszt"
TITLE "Die drei Zigeuner"
INDEX 01 22:11:39
TRACK 08 AUDIO
PERFORMER "Liszt"
TITLE "Freudvoll und leidvoll"
INDEX 01 26:40:73
TRACK 09 AUDIO
PERFORMER "Liszt"
TITLE "Es muss ein Wunderbares sein"
INDEX 01 29:47:56
TRACK 10 AUDIO
PERFORMER "Liszt"
TITLE "Nimm einen Strahl der Sonne"
INDEX 01 31:52:64
TRACK 11 AUDIO
PERFORMER "Tchaikovsky"
TITLE "Lied der Mignon: Nur wer die "
INDEX 01 32:41:15
TRACK 12 AUDIO
PERFORMER "Tchaikovsky"
TITLE "Pendant le bal, op. 38 No. 8"
INDEX 01 35:51:19
TRACK 13 AUDIO
PERFORMER "Tchaikovsky"
TITLE "Lied der Mignon: Ah! Oui brula "
INDEX 01 38:18:28
TRACK 14 AUDIO
PERFORMER "Reger"
TITLE "Des Kindes Gebet. op. 76 NO.22 "
INDEX 01 41:35:49
TRACK 15 AUDIO
PERFORMER "Reger"
TITLE "Herzenstauseh, op. 76 No. 5"
INDEX 01 43:41:12

CD4

REM ACCURATERIPID 004211b3-04c671e7-92103a1a
REM COMMENT "CUETools generated dummy CUE sheet"
PERFORMER "Gounod•Fauré•Debussy"
TITLE "Fin de siecle CD4"
REM DATE 2004
REM GENRE "Vocal"
FILE "Gounod•Fauré•Debussy - Fin de siecle CD4.ape" WAVE
TRACK 01 AUDIO
PERFORMER "Gounod"
TITLE "À la brise"
INDEX 01 00:00:00
TRACK 02 AUDIO
PERFORMER "Gounod"
TITLE "Ouanti mai"
INDEX 01 03:04:06
TRACK 03 AUDIO
PERFORMER "Gounod"
TITLE "0 ma belle rebelle"
INDEX 01 04:44:47
TRACK 04 AUDIO
PERFORMER "Gounod"
TITLE "Absence "
INDEX 01 07:58:08
TRACK 05 AUDIO
PERFORMER "Gounod"
TITLE "Mignon "
INDEX 01 11:24:13
TRACK 06 AUDIO
PERFORMER "Gounod"
TITLE "Sérénade "
INDEX 01 14:45:60
TRACK 07 AUDIO
PERFORMER "Gounod•Fauré•Debussy"
TITLE "Aprés un rève. op. 7 No. 1"
INDEX 01 19:00:00
TRACK 08 AUDIO
PERFORMER "Gounod•Fauré•Debussy"
TITLE "Le secret, op. 23 No. 3"
INDEX 01 21:23:49
TRACK 09 AUDIO
PERFORMER "Fauré"
TITLE "Aurore, op. 39 No. 1"
INDEX 01 23:30:27
TRACK 10 AUDIO
PERFORMER "Fauré"
TITLE "Prison, op .. 83 No. 1"
INDEX 01 25:22:36
TRACK 11 AUDIO
PERFORMER "Fauré"
TITLE "Soir op. 83 No. 2"
INDEX 01 27:30:56
TRACK 12 AUDIO
PERFORMER "Fauré"
TITLE "Jardin nocturne, op. 113 No. 3"
INDEX 01 29:37:71
TRACK 13 AUDIO
PERFORMER "Fauré"
TITLE "Clair de Lune op, 45, NO.2"
INDEX 01 32:59:51
TRACK 14 AUDIO
PERFORMER "Fauré"
TITLE "En sourdine op. 58, NO.2"
INDEX 01 35:52:29
TRACK 15 AUDIO
PERFORMER "Debussy"
TITLE "Ariettes Oubliees: C'est l'extase langoureuse "
INDEX 01 39:24:01
TRACK 16 AUDIO
PERFORMER "Debussy"
TITLE "Il pleure dans mon coeur"
INDEX 01 42:08:11
TRACK 17 AUDIO
PERFORMER "Debussy"
TITLE "L'ombre des arbres"
INDEX 01 44:43:06
TRACK 18 AUDIO
PERFORMER "Debussy"
TITLE "Chevaux de bois"
INDEX 01 47:05:33
TRACK 19 AUDIO
PERFORMER "Debussy"
TITLE "Green "
INDEX 01 49:46:21
TRACK 20 AUDIO
PERFORMER "Debussy"
TITLE "Spleen"
INDEX 01 51:46:16
TRACK 21 AUDIO
PERFORMER "Debussy"
TITLE "Fetes Galantes: En sourdine"
INDEX 01 54:01:59
TRACK 22 AUDIO
PERFORMER "Debussy"
TITLE "Fantoches "
INDEX 01 57:00:59
TRACK 23 AUDIO
PERFORMER "Debussy"
TITLE "Clair de lune"
INDEX 01 58:14:41
TRACK 24 AUDIO
PERFORMER "Debussy"
TITLE "Trois Chansons de Bilitis: La flûte de Pan"
INDEX 01 61:12:60
TRACK 25 AUDIO
PERFORMER "Debussy"
TITLE "Le chevelure"
INDEX 01 63:35:72
TRACK 26 AUDIO
PERFORMER "Debussy"
TITLE "Le tombeau de naïades"
INDEX 01 66:44:43



Показать сообщения:    

Текущее время: 04-Дек 02:53

Часовой пояс: UTC + 3


Вы не можете начинать темы
Вы не можете отвечать на сообщения
Вы не можете редактировать свои сообщения
Вы не можете удалять свои сообщения
Вы не можете голосовать в опросах
Вы не можете прикреплять файлы к сообщениям
Вы не можете скачивать файлы