В гостях у Эльдара Рязанова. Творческий вечер Сергея Соловьева (Сергей Соловьёв, Елена Никитан) [2014 г., Творческий вечер, SATRip] Киноклуб "Эльдар"


Статистика раздачи [Обновить пиров]
Размер:  892 MB   |    Зарегистрирован:  8 месяцев 21 день   |    Скачан:  0 раз

Полного источника не было: Никогда

Личеров:  3  [  0 KB/s  ]   Подробная статистика пиров
 
   
 
 
 

[Цитировать]

В гостях у Эльдара Рязанова. Творческий вечер Сергея Соловьева Год выпуска: 2014.
Жанр: Творческий вечер.
Продолжительность: 01:07:43.
Режиссеры: заслуженный деятель искусств РСФСР, народный артист России Сергей Соловьёв, Елена Никитан.
Участники вечера:
Татьяна Друбич, Олеся Судзиловская, народный артист РСФСР Сергей Шакуров, Сергей Рыженко.
Описание:
Его можно слушать бесконечно, ему есть, что рассказать и он умеет рассказывать.
Уже в 14 лет он играл на сцене БДТ в спектакле "Дали неоглядные". Будущего народного артиста России пригласил на роль Игорь Владимиров, случайно встретив его на Невском проспекте. Совсем юным Соловьёв поступил на режиссёрский факультет ВГИКа. И к кому! - к Михаилу Ромму и Александру Столперу. По окончании в первый же год дебютировал на "Мосфильме", сняв две новеллы по рассказам Чехова для киноальманаха "Семейное счастье". Но по-настоящему известным Соловьёв стал после фильма "Сто дней после детства", который получил множество призов на международных фестивалях. В этой картине одну из главных ролей исполнила юная Татьяна Друбич, которая на всю жизнь стала музой режиссёра. Их творческий союз продолжился на съёмках не менее значимой картины Соловьева "Спасатель". Среди его других работ ленты "Чужая белая и рябой", "Избранные", "Станционный
смотритель", "Нежный возраст" и другие. Сергей Соловьев дважды удостоился чести быть членом жюри Венецианского кинофестиваля.
В 1987 году Соловьев снимает культовый фильм "Асса", в котором прозвучали композиции групп "Аквариум", "Кино", "Браво", снялся Виктор Цой. Этот фильм стал началом трилогии, продолженной лентами "Чёрная роза - эмблема печали, красная роза - эмблема любви" (1989) и "Дом под звёздным небом" (1991). Более десяти лет Соловьев работал над экранизацией романа Льва Толстого "Анна Каренина", в которой сыграли Татьяна Друбич и Олег Янковский. Одну из последних работ "Иван Тургенев. Метафизика любви" Сергей Соловьёв так и не завершил из-за кончины Олега Янковского. Сегодня Сергей Соловьёв готовится к новой работе, ведёт мастерскую режиссуры во ВГИКе.
В вечере также участвуют актрисы Татьяна Друбич и Олеся Судзиловская, актер Сергей Шакуров и музыкант Сергей Рыженко, исполнивший вокальные партии героя Сергея Бугаева - "Бананана" в фильме Сергея Соловьёва "Асса".

Дополнительная информация:
Страна: Россия .
Выпущено: © ГТРК "Культура".
Творческий вечер состоялся в Киноклубе "Эльдар" 19 сентября 2014 года.
Режиссер вечера: заслуженный деятель искусств РСФСР, народный артист России Сергей Соловьёв.
В передаче использованы фрагменты фильмов кинорежиссера Сергея Соловьева: "Егор Булычов и другие" ("Мосфильм") 1971 г., "Станционный смотритель" ("Мосфильм") 1972 г., "Сто дней после детства" ("Мосфильм") 1974 г., "Спасатель" ("Мосфильм") 1980 г., "Асса" ("Мосфильм", ТО "Круг") 1987 г., "2-Асса-2" (кинокомпания "СОЛИВС") 2009 г., "Нежный возраст" (студия "ТРИТЭ" Никиты Михалкова) 2009 г.
Музыка Сергея Баневича, Сергея Рыженко, Сергея Никитина, Бориса Гребенщикова, Игоря Николаева.
Стихи Геннадия Шпаликова, Бориса Гребенщикова, Игоря Николаева.
Режиссёр телеверсии: Елена Никитан.
Оператор-постановщик: Виктор Браздников.


Трансляция ГТРК "Культура" в 21:30 28.12.2014г.
Релиз
Рип lesik689 .
Качество видео:...SATRip
Формат:.................AVI
Видео:..720x400 (1.80:1), 25 fps, XviD MPEG-4 ~1702 kbps avg, 0.24 bit/pixel
Аудио:..48 kHz, MPEG Layer 3, 2 ch, ~128.00 kbps avg

Отчет Media Info

General
Complete name : V.gostyah.u.Eldara.Ryazanova.Tvorcheskiy.vecher.Sergeya.Solovyeva.2014.XviD.SATRip.fenixclub.avi
Format : AVI
Format/Info : Audio Video Interleave
File size : 892 MiB
Duration : 1h 7mn
Overall bit rate : 1 841 Kbps
Writing application : VirtualDubMod 1.5.10.2 (build 2542/release)
Writing library : VirtualDubMod build 2542/release
Video
ID : 0
Format : MPEG-4 Visual
Format profile : Advanced Simple@L5
Format settings, BVOP : 2
Format settings, QPel : No
Format settings, GMC : No warppoints
Format settings, Matrix : Default (MPEG)
Muxing mode : Packed bitstream
Codec ID : XVID
Codec ID/Hint : XviD
Duration : 1h 7mn
Bit rate : 1 703 Kbps
Width : 720 pixels
Height : 400 pixels
Display aspect ratio : 5:4
Original display aspect ratio : 16:9
Frame rate : 25.000 fps
Color space : YUV
Chroma subsampling : 4:2:0
Bit depth : 8 bits
Scan type : Progressive
Compression mode : Lossy
Bits/(Pixel*Frame) : 0.237
Stream size : 825 MiB (93%)
Writing library : XviD 64
Audio
ID : 1
Format : MPEG Audio
Format version : Version 1
Format profile : Layer 3
Mode : Joint stereo
Mode extension : MS Stereo
Codec ID : 55
Codec ID/Hint : MP3
Duration : 1h 7mn
Bit rate mode : Constant
Bit rate : 128 Kbps
Channel(s) : 2 channels
Sampling rate : 48.0 KHz
Compression mode : Lossy
Stream size : 62.0 MiB (7%)
Alignment : Split accross interleaves
Interleave, duration : 40 ms (1.00 video frame)
Interleave, preload duration : 500 ms.

Скриншоты

Альтернативный хост

[teatrix.ru].t19967.torrent 
Торрент: Зарегистрирован [ 2016-03-19 00:35 ] · 4AB1DDBD9ADD813B1F221ACD94BC8A225ED34BAA

Скачать .torrent

Скачать

18 KB

Статус: проверено
Скачан: 0 раз
Размер: 892 MB
terms.php



Быстрый ответ

Имя:

      
Для отправки сообщений необходимо включить JavaScript
Показать сообщения:    

Текущее время: 09-Дек 12:47

Часовой пояс: UTC + 3


Вы можете начинать темы
Вы можете отвечать на сообщения
Вы не можете редактировать свои сообщения
Вы не можете удалять свои сообщения
Вы не можете голосовать в опросах
Вы не можете прикреплять файлы к сообщениям
Вы можете скачивать файлы