(Classical) Heinrich Schütz (Schuetz, Schutz) - Musikalische Exequien SWV 279-281, Die sieben Worte SWV 478 (Dresdner Kreuzchor, Mauersberger, Schreier, Adam, Rotzsch, Grüss (Gruess, Gruss) et al) - 1996, FLAC (tracks+.cue) lossless


Статистика раздачи [Обновить пиров]
Размер:  322 MB   |    Зарегистрирован:  8 месяцев 18 дней   |    Скачан:  0 раз

Полного источника не было: Никогда

Личеров:  3  [  0 KB/s  ]   Подробная статистика пиров
 
   
 
 
 

[Цитировать]

Heinrich Schütz - Musikalische Exequien SWV 279-281, Die sieben Worte Jesu Christi am Kreuz SWV 478 (Rudolf Mauersberger, Peter Schreier, Theo Adam, Hans-Joachim Rotzsch, Hans Grüß, Werner Jaroslawski et al) / Генрих Шютц - Погребальная месса, Семь слов (Дрезденский Кройцхор, Рудольф Мауэрсбергер, Петер Шрайер, Тео Адам, Ханс-Иоаким Роч, Ханс Грюсс, Вернер Ярославский и другие)
ВНИМАНИЕ!!! Торрент перезалит - диск сриплен заново EACом, добавлены сканы буклета
Жанр: classical
Страна-производитель диска: Germany
Год издания диска: 1996
Издатель (лейбл): Berlin Classics (Edel, VEB Deutsche Schallplatten)
Номер по каталогу: 0020372BC
Дата записи: 1966-1968
Аудиокодек: FLAC
Тип рипа: tracks+.cue
Битрейт аудио: lossless
Продолжительность: 57:40
Источник: собственный рип
Наличие сканов в содержимом раздачи: да
Треклист:
[1-3] Musikalische Exequien
[1] Concert in Form einer teutschen Begräbnis-Missa SWV 279 27:31
a) Nacket bin ich von Mutterleibe kommen
b) Also hat Gott die Welt geliebt

Исполнители

Friedemann Jäckel, Sopran I
Andreas Göhler, Sopran II
Johannes Oelsner, Alt
Peter Schreier, Tenor I
Hans-Joachim Rotzsch, Tenor II
Hermann Christian Polster, Baß I
Siegfried Vogel Baß II
[2] Motette „Herr, wenn ich nur dich habe" SWV 280 3:12
[3] Canticum B. Simeonis „Herr, nun lässest du deinen Diener in Frieden fahren" SWV 281 4:51

Исполнители

Peter Schreier, Tenor
Werner Jaroslawski. Tenor-Viola da gamba
Wilhelm Neumann, Violone
Hans Otto, Orgel
[4] Die Sieben Worte Jesu Christi am Kreuz SWV 478 22:06

Исполнители

Jesus - Peter Schreier, Tenor
Schächer zur Rechten - Theo Adam, Baß
Schächer zur Linken - Rolf Apreck, Tenor
Evangelist - Hans-Joachim Rotzsch, Tenor; Hermann Christian Polster, Baß; Eberhard Dittrich, Alt (Kruzianer), Michael Cramer, Sopran (Kruzianer)
Peter Klug, Diskant-Viola da gamba
Hani-Peter Linde, Friedemann Starke, Doris Linde, Alt-Viola da gamba
Hans Grüß, Tenor-Viola da gamba
Wilhelm Neumann, Violone
Mathias Siedel, Positiv
Dresdner Kreuzchor
Musikalische Assistenz: Wolfgang Ebersbach
Dirigent: Rudolf Mauersberger

Выходные данные записи

Musikregie. Heinz Wegner
Tonregie: Claus Strüben (zU SWV 279); Eberhard Richter (zu SWV 280, 281, 478)
Aufgenommen 1966 (ll) und 1968 (l)
Gesamtlaufzeit 57:40
Herausgeber: VEB Deutsche Schallplatten Berlin DDR
Autor der Einführung Dr. Karl Heller (1972)
Titelseite Dürer, Hieronymus im Gehäus, 1514. Kupferstich, Detail.
Staatliche Museen zu Berlin
Gestaltung: Christoph Ehbets
Druck: VEB Gotha-Druck
Обратите внимание - на последней странице буклета неверно указано, что на обложке. Никакой это не Генрих, конечно, Шютц, 85 лет от роду, а вовсе даже картина "Оплакивание Христа" Франческо Альбани (1578-1660; картина в настоящее время в собрании Лувра).

Образцовые исполнения музыки Генриха Шютца (Heinrich Schütz, 1585-1672) Дрезденским Кройцхором (Dresdner Kreuzchor) под управлением 25-го кройцкантора Рудольфа Мауэрсбергера (Rudolf Mauersberger). На данной записи (части большой серии, см. ниже под спойлером) представлены записанные в 1966-1968 гг, изданные на виниле VEB Deutsche Schallplatten в 70-х и переизданные Edel в 1996 году "Погребальная месса" (Musikalische Exequien, SWV 279-281), на мой взгляд, самое прознительное произведение Шютца, и "Семь слов" (Die sieben Worte Jesu Christi am Kreuz, SWV 478). Данное переиздание полностью воспроизводит оригинальную ГДРовскую пластинку, чья обложка с фрагментом гравюры Дюрера "Св. Иероним в келье"(Der heilige Hieronymus im Gehäus, 1514) и помещена здесь (а в сканах лежит и обложка переизданного CD, где гравюру заменила картина Франческо Альбани (1578-1660 - практически совпадает с годами жизни Шютца) "Оплакивание Христа", в настоящее время в собрании Лувра). В раздачу включены тексты исполняемых произведений (на немецком с английским переводом), сканы диска, обложки и буклета, в котором имеются две хорошие фотографии Рудольфа Мауэрсбергера, и обложек оригинальных виниловых пластинок.

Исполнители:
Dresdner Kreuzchor
Musikalische Assistenz: Wolfgang Ebersbach
Dirigent: Rudolf Mauersberger
Friedemann Jäckel, Andreas Göhler, Michael Cramer, Sopran
Johannes Oelsner, Eberhard Dittrich, Alt
Peter Schreier, Harn-Joachim Rotzsch, Rolf Apreck, Tenor
Hermann Christian Polster, Siegfried Vogel, Theo Adam, Baß
Werner Jaroslawski, Hans Grüß, Tenor-Viola da gamba
Peter Klug, Diskant-Viola da gamba
Hani-Peter Linde, Friedemann Starke, Doris Linde, Alt-Viola da gamba
Wilhelm Neumann, Violone
Hans Otto, Orgel
Mathias Siedel, Positiv

Лог создания рипа

Exact Audio Copy V1.0 beta 3 from 29. August 2011
Отчёт EAC об извлечении, выполненном 18. февраля 2015, 20:35
Heinrich Schuetz / Dresdner Kreuzchor / Musikalische Exequien SWV 279-81. Die Sieben Worte SWV 478
Дисковод: MATSHITABD-MLT UJ240ES Adapter: 2 ID: 0
Режим чтения : Достоверность
Использование точного потока : Да
Отключение кэша аудио : Да
Использование указателей C2 : Нет
Коррекция смещения при чтении : 103
Способность читать области Lead-in и Lead-out : Нет
Заполнение пропущенных сэмплов тишиной : Да
Удаление блоков с тишиной в начале и конце : Нет
При вычислениях CRC использовались нулевые сэмплы : Да
Интерфейс : Встроенный Win32-интерфейс для Win NT/2000
Обработка зазоров : Добавлено к предыдущему треку
Выходной формат : Пользовательский кодировщик
Выбранный битрейт : 1024 kBit/s
Качество : Высокий
Добавление ID3-тега : Нет
Утилита сжатия : C:\Program Files (x86)\Exact Audio Copy\Flac\flac.exe
Дополнительные параметры : -V -8 -T "Genre=%genre%" -T "Artist=%artist%" -T "Title=%title%" -T "Album=%albumtitle%" -T "Date=%year%" -T "Tracknumber=%tracknr%" -T "Comment=%comment%" %source%
TOC извлечённого CD
Трек | Старт | Длительность | Начальный сектор | Конечный сектор
---------------------------------------------------------------------
1 | 0:00.00 | 27:36.00 | 0 | 124199
2 | 27:36.00 | 3:15.00 | 124200 | 138824
3 | 30:51.00 | 4:58.00 | 138825 | 161174
4 | 35:49.00 | 22:06.00 | 161175 | 260624
Трек 1
Имя файла C:\Users\Nornore\Documents\EAC rips\SchuetzMusikalischeExequien\01. Concert in Form einer teutschen Begräbnis-Missa SWV 279.wav
Длина предзазора 0:00:02.00
Пиковый уровень 99.9 %
Скорость извлечения 3.4 X
Качество трека 99.9 %
CRC теста 7C6F6908
CRC копии 7C6F6908
Точное извлечение (достоверность 9) [7655E375] (AR v2)
Копирование... OK
Трек 2
Имя файла C:\Users\Nornore\Documents\EAC rips\SchuetzMusikalischeExequien\02. Motette ''Herr, wenn ich nur dich habe'' SWV 280.wav
Длина предзазора 0:00:05.00
Пиковый уровень 99.7 %
Скорость извлечения 3.8 X
Качество трека 100.0 %
CRC теста 41B9873B
CRC копии 41B9873B
Точное извлечение (достоверность 9) [285C93C0] (AR v2)
Копирование... OK
Трек 3
Имя файла C:\Users\Nornore\Documents\EAC rips\SchuetzMusikalischeExequien\03. Canticum B. Simeonis ''Herr, nun lässest du deinen Diener in Frieden fahren'' SWV 281.wav
Длина предзазора 0:00:03.00
Пиковый уровень 98.2 %
Скорость извлечения 4.2 X
Качество трека 100.0 %
CRC теста B32AE44A
CRC копии B32AE44A
Точное извлечение (достоверность 9) [EDD18D48] (AR v2)
Копирование... OK
Трек 4
Имя файла C:\Users\Nornore\Documents\EAC rips\SchuetzMusikalischeExequien\04. Die Sieben Worte Jesu Christi am Kreuz SWV 478.wav
Длина предзазора 0:00:07.00
Пиковый уровень 95.1 %
Скорость извлечения 5.0 X
Качество трека 99.9 %
CRC теста A9E3DB18
CRC копии A9E3DB18
Точное извлечение (достоверность 9) [2E7FEDA0] (AR v2)
Копирование... OK
Все треки извлечены точно
Ошибок не произошло
Конец отчёта
==== Контрольная сумма отчёта C06E109EBCC3731E81E6681B6438F7F719A9C0FB27D688A391128690A7895835 ====

Содержание индексной карты (.CUE)

REM GENRE Classical
REM DATE 1970
REM DISCID 300D9304
REM COMMENT "ExactAudioCopy v1.0b3"
CATALOG 0000000000000
PERFORMER "Heinrich Schuetz / Dresdner Kreuzchor"
TITLE "Musikalische Exequien SWV 279-81. Die Sieben Worte SWV 478"
FILE "01. Concert in Form einer teutschen Begräbnis-Missa SWV 279.wav" WAVE
TRACK 01 AUDIO
TITLE "Concert in Form einer teutschen Begräbnis-Missa SWV 279"
PERFORMER "Heinrich Schuetz / Dresdner Kreuzchor"
INDEX 01 00:00:00
INDEX 02 04:17:00
INDEX 03 06:04:62
INDEX 04 07:55:37
INDEX 05 08:32:50
INDEX 06 10:14:32
INDEX 07 11:31:20
INDEX 08 13:13:67
INDEX 09 13:51:25
INDEX 10 16:15:50
INDEX 11 17:50:70
INDEX 12 19:03:37
INDEX 13 21:08:25
INDEX 14 22:25:25
INDEX 15 23:48:12
INDEX 16 24:59:12
INDEX 17 26:01:20
TRACK 02 AUDIO
TITLE "Motette 'Herr, wenn ich nur dich habe' SWV 280"
PERFORMER "Heinrich Schuetz / Dresdner Kreuzchor"
INDEX 00 27:31:00
FILE "02. Motette ''Herr, wenn ich nur dich habe'' SWV 280.wav" WAVE
INDEX 01 00:00:00
TRACK 03 AUDIO
TITLE "Canticum B. Simeonis 'Herr, nun lässest du deinen Diener in Frieden fahren' SWV 281"
PERFORMER "Heinrich Schuetz / Dresdner Kreuzchor"
INDEX 00 03:12:00
FILE "03. Canticum B. Simeonis ''Herr, nun lässest du deinen Diener in Frieden fahren'' SWV 281.wav" WAVE
INDEX 01 00:00:00
TRACK 04 AUDIO
TITLE "Die Sieben Worte Jesu Christi am Kreuz SWV 478"
PERFORMER "Heinrich Schuetz / Dresdner Kreuzchor"
INDEX 00 04:51:00
FILE "04. Die Sieben Worte Jesu Christi am Kreuz SWV 478.wav" WAVE
INDEX 01 00:00:00
INDEX 02 02:53:00
INDEX 03 04:42:12
INDEX 04 05:45:00
INDEX 05 08:26:62
INDEX 06 11:25:00
INDEX 07 13:56:25
INDEX 08 14:47:00
INDEX 09 16:05:50
INDEX 10 17:02:50
INDEX 11 17:59:00
INDEX 12 19:51:00
[teatrix.ru].t19969.torrent 
Торрент: Зарегистрирован [ 2016-03-19 00:35 ] · 71B81348F20E192068E514F2629D93751B4A46A3

Скачать .torrent

Скачать

16 KB

Статус: проверено
Скачан: 0 раз
Размер: 322 MB
terms.php



Быстрый ответ

Имя:

      
Для отправки сообщений необходимо включить JavaScript
Показать сообщения:    

Текущее время: 06-Дек 11:14

Часовой пояс: UTC + 3


Вы можете начинать темы
Вы можете отвечать на сообщения
Вы не можете редактировать свои сообщения
Вы не можете удалять свои сообщения
Вы не можете голосовать в опросах
Вы не можете прикреплять файлы к сообщениям
Вы можете скачивать файлы