Чайка (Рид Талипов) [1999, Республика Беларусь, Драма, DVB] Гомельский областной драматический театр


 

[Цитировать]

Чайка
Название театра: Гомельский областной драматический театр
Страна: Республика Беларусь
Жанр: Драма
Год выпуска: 1999
Продолжительность: 2-а действия 01:13:42 + 01:10:58
Перевод: Не требуется
Режиссёр: Рид Талипов
В ролях:
Аркадина, актриса - нар. арт. Республики Беларусь Людмила Корхова
Треплев, ее сын - Сергей Поздняк
Сорин, ее брат - засл. арт. Республики Беларусь Николая Палло
Заречная, молодая девушка - Наталья Деберина
Шамраев, поручик в отставке - Виталий Бедношея
Полина Андреевна, его жена - Галина Широкшина
Маша, его дочка - Татьяна Змитюро
Тригорин, беллетрист - Олег Короткевич
Дорн, врач - засл. арт. Республики Беларусь Юрий Фейгин
Медведенко, учитель - Юрий Мартинович
Яков, работник - Артем Булавка
Описание: Спектакль по одноименной пьесе Антона Павловича Чехова.
На лесном озере человек "от нечего делать" убил чайку. Символизм этой истории позволил Чехову выразить психологически сложные "неразрывно-неслиянные" отношения героев, живущих возле красивого озера, страдающих, надеющихся, ищущих, но не способных найти себя и своё место в жизни.
Самая трудная в судьбе А. П. Чехова, но и самая известная и востребованная театрами мира пьеса. Её простота, уникальная театральность и сценическое долголетие привлекают режиссёров и актеров, которые каждой новой постановкой предлагают зрителям разгадать тайну пьесы, в которой драму людей автор представил в жанре комедии.
Доп. информация:

Благодарность: исходник для данной раздачи, записан с цифрового наземного канала, т.е. DVB-Т
Запись потока *.ts с наземного цифрового телеканала "Беларусь 3", ремукс в *.mpg программой VideoReDo.
Семпл: http://rusfolder.com/42675441
Качество видео: DVB
Формат видео: MPG
Видео 1: MPEG2 Video 720x576 (4:3) 25.00fps, 3046 Kbps
Видео 2: MPEG2 Video 720x576 (4:3) 25.00fps, 3046 Kbps
Аудио: MPEG Audio 48000Hz stereo 256kbps, 2 канала

MediaInfo 1

General
Complete name : D:\Театр\Чайка (1999) с глюком\Чайка (1999)\Чайка _01_1999.mpg
Format : MPEG-PS
File size : 1.73 GiB
Duration : 1h 13mn
Overall bit rate mode : Variable
Overall bit rate : 3 369 Kbps
Video
ID : 224 (0xE0)
Format : MPEG Video
Format version : Version 2
Format profile : Main@Main
Format settings, BVOP : Yes
Format settings, Matrix : Custom
Format settings, GOP : M=3, N=15
Format settings, picture st : Frame
Duration : 1h 13mn
Bit rate mode : Variable
Bit rate : 3 046 Kbps
Maximum bit rate : 9 500 Kbps
Width : 720 pixels
Height : 576 pixels
Display aspect ratio : 4:3
Frame rate : 25.000 fps
Standard : PAL
Color space : YUV
Chroma subsampling : 4:2:0
Bit depth : 8 bits
Scan type : Interlaced
Scan order : Top Field First
Compression mode : Lossy
Bits/(Pixel*Frame) : 0.294
Time code of first frame : 00:00:00:00
Time code source : Group of pictures header
GOP, Open/Closed : Open
Stream size : 1.57 GiB (90%)
GOP, Open/Closed of first f : Closed
Audio
ID : 192 (0xC0)
Format : MPEG Audio
Format version : Version 1
Format profile : Layer 2
Duration : 1h 13mn
Bit rate mode : Constant
Bit rate : 256 Kbps
Channel(s) : 2 channels
Sampling rate : 48.0 KHz
Compression mode : Lossy
Stream size : 135 MiB (8%)

MediaInfo 2

General
Complete name : D:\Театр\Чайка (1999) с глюком\Чайка (1999)\Чайка _02_1999.mpg
Format : MPEG-PS
File size : 1.67 GiB
Duration : 1h 10mn
Overall bit rate mode : Variable
Overall bit rate : 3 369 Kbps
Video
ID : 224 (0xE0)
Format : MPEG Video
Format version : Version 2
Format profile : Main@Main
Format settings, BVOP : Yes
Format settings, Matrix : Custom
Format settings, GOP : M=3, N=15
Format settings, picture st : Frame
Duration : 1h 10mn
Bit rate mode : Variable
Bit rate : 3 046 Kbps
Maximum bit rate : 9 500 Kbps
Width : 720 pixels
Height : 576 pixels
Display aspect ratio : 4:3
Frame rate : 25.000 fps
Standard : PAL
Color space : YUV
Chroma subsampling : 4:2:0
Bit depth : 8 bits
Scan type : Interlaced
Scan order : Top Field First
Compression mode : Lossy
Bits/(Pixel*Frame) : 0.294
Time code of first frame : 00:00:00:00
Time code source : Group of pictures header
GOP, Open/Closed : Open
Stream size : 1.51 GiB (90%)
GOP, Open/Closed of first f : Closed
Audio
ID : 192 (0xC0)
Format : MPEG Audio
Format version : Version 1
Format profile : Layer 2
Duration : 1h 10mn
Bit rate mode : Constant
Bit rate : 256 Kbps
Channel(s) : 2 channels
Sampling rate : 48.0 KHz
Compression mode : Lossy
Delay relative to video : 8ms
Stream size : 130 MiB (8%)



Показать сообщения:    

Текущее время: 10-Дек 15:47

Часовой пояс: UTC + 3


Вы не можете начинать темы
Вы не можете отвечать на сообщения
Вы не можете редактировать свои сообщения
Вы не можете удалять свои сообщения
Вы не можете голосовать в опросах
Вы не можете прикреплять файлы к сообщениям
Вы не можете скачивать файлы