(Classical) Handel - Oboe Concertos Nos.1-3, Air & Rondo, Suite in G minor, Overture to Otho - (Anthony Camden, Nicholas Ward) - 1996, FLAC (image+.cue) lossless


 

[Цитировать]

Handel - Oboe Concertos Nos.1-3, Air & Rondo, Suite in G minor, Overture to Otho - (Anthony Camden, Nicholas Ward)
Жанр: Classical
Страна-производитель диска: Germany
Год издания диска: 1996
Издатель (лейбл): Naxos
Номер по каталогу: 8.553430
Дата записи: 1995
Аудиокодек: FLAC
Тип рипа: image+.cue
Битрейт аудио: lossless
Продолжительность: 62:20
Источник: собственный рип
сайт-источник/ник/другое: Из личной коллекции
Наличие сканов в содержимом раздачи: да
Треклист:
Handel:
1-4. Oboe Concerto No. 3 in G minor, HWV 287
5-8. Oboe Concerto No. 2 in B flat major, HWV 302a
9-12. Oboe Concerto No. 1 in B flat major, HWV 301
13-14. Air & Rondo (orch. A. Camden)
15-23. Suite in G minor (ed. A. Camden)
24-26. Overture to "Otho" in B flat major
Исполнители:
Anthony Camden (oboe)
City of London Sinfonia, Nicholas Ward

Лог создания рипа

Exact Audio Copy V1.0 beta 3 from 29. August 2011
EAC extraction logfile from 6. December 2014, 18:11
Anthony Camden, City of London Sinfonia / Oboe Concertos Nos. 1 - 3, Air and Rondo, Suite, Overture to ''Otho''
Used drive : HL-DT-STDVDRAM GSA-T40N Adapter: 0 ID: 0
Read mode : Secure
Utilize accurate stream : Yes
Defeat audio cache : Yes
Make use of C2 pointers : No
Read offset correction : 667
Overread into Lead-In and Lead-Out : No
Fill up missing offset samples with silence : Yes
Delete leading and trailing silent blocks : No
Null samples used in CRC calculations : Yes
Used interface : Native Win32 interface for Win NT & 2000
Used output format : User Defined Encoder
Selected bitrate : 32 kBit/s
Quality : High
Add ID3 tag : No
Command line compressor : C:\Program Files\Exact Audio Copy\Flac\flac.exe
Additional command line options : -V -8 -T "Date=%year%" -T "Genre=%genre%" %source%
TOC of the extracted CD
Track | Start | Length | Start sector | End sector
---------------------------------------------------------
1 | 0:00.00 | 2:29.20 | 0 | 11194
2 | 2:29.20 | 1:53.27 | 11195 | 19696
3 | 4:22.47 | 3:02.15 | 19697 | 33361
4 | 7:24.62 | 2:05.45 | 33362 | 42781
5 | 9:30.32 | 2:12.28 | 42782 | 52709
6 | 11:42.60 | 1:56.30 | 52710 | 61439
7 | 13:39.15 | 2:49.65 | 61440 | 74179
8 | 16:29.05 | 1:47.22 | 74180 | 82226
9 | 18:16.27 | 1:48.73 | 82227 | 90399
10 | 20:05.25 | 1:50.29 | 90400 | 98678
11 | 21:55.54 | 2:20.33 | 98679 | 109211
12 | 24:16.12 | 1:52.05 | 109212 | 117616
13 | 26:08.17 | 3:03.73 | 117617 | 131414
14 | 29:12.15 | 2:28.07 | 131415 | 142521
15 | 31:40.22 | 6:32.28 | 142522 | 171949
16 | 38:12.50 | 1:48.32 | 171950 | 180081
17 | 40:01.07 | 1:41.23 | 180082 | 187679
18 | 41:42.30 | 1:27.35 | 187680 | 194239
19 | 43:09.65 | 0:55.10 | 194240 | 198374
20 | 44:05.00 | 4:50.10 | 198375 | 220134
21 | 48:55.10 | 1:36.27 | 220135 | 227361
22 | 50:31.37 | 3:19.20 | 227362 | 242306
23 | 53:50.57 | 1:31.65 | 242307 | 249196
24 | 55:22.47 | 2:57.40 | 249197 | 262511
25 | 58:20.12 | 2:22.33 | 262512 | 273194
26 | 60:42.45 | 1:37.55 | 273195 | 280524
Range status and errors
Selected range
Filename D:\Rip\Handel.Oboe_Concertos_Nos.1-3,etc-Anthony_Camden,Nicholas_Ward,1995(Naxos,8.553430)\Anthony Camden, City of London Sinfonia - Oboe Concertos Nos. 1 - 3, Air and Rondo, Suite, Overture to ''Otho''.wav
Peak level 50.6 %
Extraction speed 4.2 X
Range quality 99.9 %
Test CRC 6B059063
Copy CRC 6B059063
Copy OK
No errors occurred
AccurateRip summary
Track 1 accurately ripped (confidence 12) [EB98318D] (AR v2)
Track 2 accurately ripped (confidence 12) [40DAC96E] (AR v2)
Track 3 accurately ripped (confidence 12) [AE0710F2] (AR v2)
Track 4 accurately ripped (confidence 12) [746E8DFE] (AR v2)
Track 5 accurately ripped (confidence 12) [A7741455] (AR v2)
Track 6 accurately ripped (confidence 12) [1AC745E5] (AR v2)
Track 7 accurately ripped (confidence 12) [6E8DD44E] (AR v2)
Track 8 accurately ripped (confidence 12) [D9AB4966] (AR v2)
Track 9 accurately ripped (confidence 12) [1B42AC23] (AR v2)
Track 10 accurately ripped (confidence 12) [110204F6] (AR v2)
Track 11 accurately ripped (confidence 12) [F09C135A] (AR v2)
Track 12 accurately ripped (confidence 12) [15B0DDD8] (AR v2)
Track 13 accurately ripped (confidence 12) [A5352888] (AR v2)
Track 14 accurately ripped (confidence 12) [6E310473] (AR v2)
Track 15 accurately ripped (confidence 11) [A6BBCDB0] (AR v2)
Track 16 accurately ripped (confidence 12) [DF5F5E06] (AR v2)
Track 17 accurately ripped (confidence 12) [2DD76771] (AR v2)
Track 18 accurately ripped (confidence 12) [705B3E44] (AR v2)
Track 19 accurately ripped (confidence 12) [3F23B969] (AR v2)
Track 20 accurately ripped (confidence 12) [92F735E9] (AR v2)
Track 21 accurately ripped (confidence 12) [B6E191A6] (AR v2)
Track 22 accurately ripped (confidence 11) [73F13122] (AR v2)
Track 23 accurately ripped (confidence 11) [4E5163B0] (AR v2)
Track 24 accurately ripped (confidence 12) [64D31A25] (AR v2)
Track 25 accurately ripped (confidence 12) [784D8483] (AR v2)
Track 26 accurately ripped (confidence 12) [BED9BF61] (AR v2)
All tracks accurately ripped
End of status report
==== Log checksum B91EB2D9B695E10C0FA4C593B8757D081529ECCD261FCBAC9F254D66795D4204 ====

Содержание индексной карты (.CUE)

REM GENRE Baroque
REM DATE 1996
REM DISCID 570E9C1A
REM COMMENT "ExactAudioCopy v1.0b3"
PERFORMER "Anthony Camden, City of London Sinfonia"
TITLE "Oboe Concertos Nos. 1 - 3, Air and Rondo, Suite, Overture to ''Otho''"
FILE "Anthony Camden, City of London Sinfonia - Oboe Concertos Nos. 1 - 3, Air and Rondo, Suite, Overture to ''Otho''.flac" WAVE
TRACK 01 AUDIO
TITLE "Oboe Concerto No. 3 in G Minor, HWV287: Grave"
PERFORMER "Anthony Camden, City of London Sinfonia"
INDEX 01 00:00:00
TRACK 02 AUDIO
TITLE "Oboe Concerto No. 3 in G Minor, HWV287: Allegro"
PERFORMER "Anthony Camden, City of London Sinfonia"
INDEX 01 02:29:20
TRACK 03 AUDIO
TITLE "Oboe Concerto No. 3 in G Minor, HWV287: Sarabande (Largo)"
PERFORMER "Anthony Camden, City of London Sinfonia"
INDEX 01 04:22:47
TRACK 04 AUDIO
TITLE "Oboe Concerto No. 3 in G Minor, HWV287: Allegro"
PERFORMER "Anthony Camden, City of London Sinfonia"
INDEX 01 07:24:62
TRACK 05 AUDIO
TITLE "Oboe Concerto No. 2 in B Flat, HWV302a: Vivace"
PERFORMER "Anthony Camden, City of London Sinfonia"
INDEX 00 09:26:60
INDEX 01 09:30:32
TRACK 06 AUDIO
TITLE "Oboe Concerto No. 2 in B Flat, HWV302a: Fuga (Allegro)"
PERFORMER "Anthony Camden, City of London Sinfonia"
INDEX 01 11:42:60
TRACK 07 AUDIO
TITLE "Oboe Concerto No. 2 in B Flat, HWV302a: 3: Andante"
PERFORMER "Anthony Camden, City of London Sinfonia"
INDEX 01 13:39:15
TRACK 08 AUDIO
TITLE "Oboe Concerto No. 2 in B Flat, HWV302a: Allegro"
PERFORMER "Anthony Camden, City of London Sinfonia"
INDEX 01 16:29:05
TRACK 09 AUDIO
TITLE "Oboe Concerto No. 1 in B Flat, HWV301: Adagio"
PERFORMER "Anthony Camden, City of London Sinfonia"
INDEX 00 18:12:67
INDEX 01 18:16:27
TRACK 10 AUDIO
TITLE "Oboe Concerto No. 1 in B Flat, HWV301: Allegro"
PERFORMER "Anthony Camden, City of London Sinfonia"
INDEX 01 20:05:25
TRACK 11 AUDIO
TITLE "Oboe Concerto No. 1 in B Flat, HWV301: Siciliana"
PERFORMER "Anthony Camden, City of London Sinfonia"
INDEX 01 21:55:54
TRACK 12 AUDIO
TITLE "Oboe Concerto No. 1 in B Flat, HWV301: Vivace"
PERFORMER "Anthony Camden, City of London Sinfonia"
INDEX 01 24:16:12
TRACK 13 AUDIO
TITLE "Air and Rondo: Air in G Minor"
PERFORMER "Anthony Camden, City of London Sinfonia"
INDEX 00 26:04:51
INDEX 01 26:08:17
TRACK 14 AUDIO
TITLE "Air and Rondo: Rondo in G Minor"
PERFORMER "Anthony Camden, City of London Sinfonia"
INDEX 01 29:12:15
TRACK 15 AUDIO
TITLE "Suite in G Minor: Overture"
PERFORMER "Anthony Camden, City of London Sinfonia"
INDEX 01 31:40:22
TRACK 16 AUDIO
TITLE "Suite in G Minor: Gavote"
PERFORMER "Anthony Camden, City of London Sinfonia"
INDEX 01 38:12:50
TRACK 17 AUDIO
TITLE "Suite in G Minor: Bourree I"
PERFORMER "Anthony Camden, City of London Sinfonia"
INDEX 01 40:01:07
TRACK 18 AUDIO
TITLE "Suite in G Minor: Bourree II"
PERFORMER "Anthony Camden, City of London Sinfonia"
INDEX 01 41:42:30
TRACK 19 AUDIO
TITLE "Suite in G Minor: Bourree I (rpt)"
PERFORMER "Anthony Camden, City of London Sinfonia"
INDEX 01 43:09:65
TRACK 20 AUDIO
TITLE "Suite in G Minor: Sarabande"
PERFORMER "Anthony Camden, City of London Sinfonia"
INDEX 01 44:05:00
TRACK 21 AUDIO
TITLE "Suite in G Minor: Rigaudon"
PERFORMER "Anthony Camden, City of London Sinfonia"
INDEX 01 48:55:10
TRACK 22 AUDIO
TITLE "Suite in G Minor: Passacaille"
PERFORMER "Anthony Camden, City of London Sinfonia"
INDEX 01 50:31:37
TRACK 23 AUDIO
TITLE "Suite in G Minor: Passepied"
PERFORMER "Anthony Camden, City of London Sinfonia"
INDEX 01 53:50:57
TRACK 24 AUDIO
TITLE "Overture to ''Otho'' in B Flat Major: Maestoso"
PERFORMER "Anthony Camden, City of London Sinfonia"
INDEX 00 55:19:40
INDEX 01 55:22:47
TRACK 25 AUDIO
TITLE "Overture to ''Otho'' in B Flat Major: Allegro"
PERFORMER "Anthony Camden, City of London Sinfonia"
INDEX 01 58:20:12
TRACK 26 AUDIO
TITLE "Overture to ''Otho'' in B Flat Major: Gavotta"
PERFORMER "Anthony Camden, City of London Sinfonia"
INDEX 01 60:42:45



Показать сообщения:    

Текущее время: 06-Дек 11:09

Часовой пояс: UTC + 3


Вы не можете начинать темы
Вы не можете отвечать на сообщения
Вы не можете редактировать свои сообщения
Вы не можете удалять свои сообщения
Вы не можете голосовать в опросах
Вы не можете прикреплять файлы к сообщениям
Вы не можете скачивать файлы