(Classical) Heinrich Schütz (Schuetz, Schutz) - Psalmen Davids SWV 22,26-27,30,32,37-39,45-47 (Dresdner Kreuzchor, Capella Fidicinia, Martin Flämig (Flaemig, Flamig), Hans Grüss (Gruess, Gruss)) - 2009, FLAC


Статистика раздачи [Обновить пиров]
Размер:  385 MB   |    Зарегистрирован:  8 месяцев 15 дней   |    Скачан:  0 раз

Полного источника не было: Никогда

Личеров:  3  [  0 KB/s  ]   Подробная статистика пиров
 
   
 
 
 

[Цитировать]

Heinrich Schütz - Psalmen Davids SWV 22, 26-27, 30, 32, 37-39, 45-47 (Dresdner Kreuzchor, Capella Fidicinia, Martin Flämig, Hans Grüß) / Генрих Шютц - Псалмы Давида (Дрезденский Кройцхор, Капелла Фидикиния, Мартин Флемиг, Ханс Грюсс)
Жанр: Classical
Страна-производитель диска: Germany
Год издания диска: 2009
Издатель (лейбл): Berlin Classics (Edel, VEB Deutsche Schallplatten)
Номер по каталогу: 0014082BC
Дата записи: 1973-1975
Аудиокодек: FLAC
Тип рипа: tracks+.cue
Битрейт аудио: lossless
Продолжительность: 1:16:09
Источник: собственный рип
Наличие сканов в содержимом раздачи: да
Треклист:
[1] Ich freu mich des, das mir geredt ist 5:24
122. Psalm SWV 26
[2] An den Wassern zu Babel saßen wir und weineten 6:03
137. Psalm SWV 37
[3] Wohl dem, der den Herren fürchtet 5:53
128. Psalm SWV 30
[4] Alleluja, lobet den Herren in seinem Heiligtum 10:44
150. Psalm SWV 38
[5] Jauchzet dem Herren, alle Welt, singt, rühmet, lobet 9:45
Konzert SWV 47
[6] Der Herr sprach zu meinem Herren 3:54
110. Psalm SWV 22
[7] Herr unser Herrscher, wie herrlich ist dein Name 5:01
8. Psalm SWV 27
[8] Danket dem Herren, denn er ist freundlich 6:54
136. Psalm SWV 32
[9] Zion spricht, der Herr hat mich verlassen 6:43
Konzert SWV 46
[10] Lobe den Herren, meine Seele 6:36
Konzert SWV 39
[11] Danket dem Herren, denn er ist freundlich 9:07
136. Psalm SWV 45
Образцовые исполнения музыки Генриха Шютца (Heinrich Schütz, 1585-1672) Дрезденским Кройцхором (Dresdner Kreuzchor) под управлением 26-го кройцкантора Мартина Флемига (Martin Flämig) в серии, начатой 25-м кройцкантором Рудольфом Мауэрсбергером (Rudolf Mauersberger). Данный диск воспроизводит выпущенные VEB Deutsche Schallplatten в 1976 году виниловые пластинки Psalmen Davids 2 (1974, целиком - SWV 22, 26-27, 30, 32, 37-38, 47) и Psalmen Davids 3 (частично - SWV 39, 45-46), и вместе с двумя другими дисками, представленными в этой раздаче, представляет полное издание шютцевских "Псалмов Давида" (SWV 22-47) в исполнении Дрезденского Кройцхора п/у Флемига и Мауэрсбергера. В качестве обложки здесь помещена оригинальная обложка пластинки Psalmen Davids 3 (фрагмент гравюры Дюрера "Св. Михаил сражается с драконом" (Der Kampf Michaels mit dem Drachen), №10 из серии "Откровение Св. Иоанна" (Die heimlich offenbarung iohannis), 1498); сканы двух других пластинок, а также сканы настоящего переиздания и буклета (включая и тексты исполняемых произведений на немецком) помещены внутрь раздачи.

Исполнители:
Jürgen Puschbeck, Sopran ■ soprano (Kruzianer) ([4], [5], [7])
Michael Wittig, Sopran ■ soprano (Kruzianer) ([4], [5], [7], [9], [10], [11])
Uwe Palisch, Sopran ■ soprano (Kruzianer) ([9])
Thomas Meißner, Sopran ■ soprano (Kruzianer) ([10])
Michael Kannegießer, Sopran ■ soprano (Kruzianer) ([11])
Tilman Rau, Alt ■ alto (Kruzianer) ([5], [7])
Ekkehard Wagner, Tenor ([4], [7], [9], [10], [11])
Wolf Reinhold, Tenor ([4], [5], [7], [11])
Armin Ude, Tenor ([4], [11])
Peter Menzel, Tenor ([4], [10])
Hermann Christian Polster, Bass ([4], [7], [10])
Gothart Stier, Bass ([5], [7])
Thomas Thomaschke, Bass ([4], [7])
Dresdner Kreuzchor
Capella Fidicinia
Leitung ■ Direction: Hans Grüß
Dirigent: Martin Flämig

Лог создания рипа

Exact Audio Copy V1.0 beta 3 from 29. August 2011
Отчёт EAC об извлечении, выполненном 2. января 2015, 17:57
Heinrich Schuetz / Dresdner Kreuzchor, Capella Fidicinia / Psalmen Davids SWV 22, 26-27, 30, 32, 37-39, 45-47
Дисковод: MATSHITABD-MLT UJ240ES Adapter: 2 ID: 0
Режим чтения : Достоверность
Использование точного потока : Да
Отключение кэша аудио : Да
Использование указателей C2 : Нет
Коррекция смещения при чтении : 103
Способность читать области Lead-in и Lead-out : Нет
Заполнение пропущенных сэмплов тишиной : Да
Удаление блоков с тишиной в начале и конце : Нет
При вычислениях CRC использовались нулевые сэмплы : Да
Интерфейс : Встроенный Win32-интерфейс для Win NT/2000
Обработка зазоров : Добавлено к предыдущему треку
Выходной формат : Пользовательский кодировщик
Выбранный битрейт : 1024 kBit/s
Качество : Высокий
Добавление ID3-тега : Нет
Утилита сжатия : C:\Program Files (x86)\Exact Audio Copy\Flac\flac.exe
Дополнительные параметры : -V -8 -T "Genre=%genre%" -T "Artist=%artist%" -T "Title=%title%" -T "Album=%albumtitle%" -T "Date=%year%" -T "Tracknumber=%tracknr%" -T "Comment=%comment%" %source%
TOC извлечённого CD
Трек | Старт | Длительность | Начальный сектор | Конечный сектор
---------------------------------------------------------------------
1 | 0:00.00 | 5:24.68 | 0 | 24367
2 | 5:24.68 | 6:03.22 | 24368 | 51614
3 | 11:28.15 | 5:53.17 | 51615 | 78106
4 | 17:21.32 | 10:44.54 | 78107 | 126460
5 | 28:06.11 | 9:45.72 | 126461 | 170407
6 | 37:52.08 | 3:54.25 | 170408 | 187982
7 | 41:46.33 | 5:01.38 | 187983 | 210595
8 | 46:47.71 | 6:54.11 | 210596 | 241656
9 | 53:42.07 | 6:43.23 | 241657 | 271904
10 | 60:25.30 | 6:36.38 | 271905 | 301642
11 | 67:01.68 | 9:07.10 | 301643 | 342677
Трек 1
Имя файла C:\Users\Nornore\Documents\EAC rips\SchutzPsalmenDavids2and3CDreissue\01. Ich freu mich dies, das mir geredt ist (122. Psalm) SWV 26.wav
Длина предзазора 0:00:02.00
Пиковый уровень 96.7 %
Скорость извлечения 2.7 X
Качество трека 100.0 %
CRC теста 04E036D9
CRC копии 04E036D9
Трек не обнаружен в базе AccurateRip
Копирование... OK
Трек 2
Имя файла C:\Users\Nornore\Documents\EAC rips\SchutzPsalmenDavids2and3CDreissue\02. An den Wassern zu Babel sassen wir und weineten (137. Psalm) SWV 37.wav
Пиковый уровень 89.4 %
Скорость извлечения 3.1 X
Качество трека 100.0 %
CRC теста 88560539
CRC копии 88560539
Трек не обнаружен в базе AccurateRip
Копирование... OK
Трек 3
Имя файла C:\Users\Nornore\Documents\EAC rips\SchutzPsalmenDavids2and3CDreissue\03. Wohl dem, der den Herren fuerchtet (128. Psalm) SWV 30.wav
Пиковый уровень 93.0 %
Скорость извлечения 3.2 X
Качество трека 99.9 %
CRC теста 7B167193
CRC копии 7B167193
Трек не обнаружен в базе AccurateRip
Копирование... OK
Трек 4
Имя файла C:\Users\Nornore\Documents\EAC rips\SchutzPsalmenDavids2and3CDreissue\04. Alleluja, lobet den Herren in seinem Heiligtum (150. Psalm) SWV 38.wav
Пиковый уровень 98.8 %
Скорость извлечения 3.8 X
Качество трека 99.9 %
CRC теста 28CA4AD7
CRC копии 28CA4AD7
Трек не обнаружен в базе AccurateRip
Копирование... OK
Трек 5
Имя файла C:\Users\Nornore\Documents\EAC rips\SchutzPsalmenDavids2and3CDreissue\05. Jauchzet dem Herren, alle Welt, singt, ruehmet, lobet SWV 47.wav
Пиковый уровень 98.8 %
Скорость извлечения 4.2 X
Качество трека 99.9 %
CRC теста 551963FE
CRC копии 551963FE
Трек не обнаружен в базе AccurateRip
Копирование... OK
Трек 6
Имя файла C:\Users\Nornore\Documents\EAC rips\SchutzPsalmenDavids2and3CDreissue\06. Der Herr sprach zu meinem Herren (110. Psalm) SWV 22.wav
Пиковый уровень 93.8 %
Скорость извлечения 4.4 X
Качество трека 100.0 %
CRC теста 98C4BA57
CRC копии 98C4BA57
Трек не обнаружен в базе AccurateRip
Копирование... OK
Трек 7
Имя файла C:\Users\Nornore\Documents\EAC rips\SchutzPsalmenDavids2and3CDreissue\07. Herr unser Herrscher, wie herrlich ist dein Name (8. Psalm) SWV 27.wav
Пиковый уровень 98.8 %
Скорость извлечения 4.6 X
Качество трека 100.0 %
CRC теста D0A1ED2D
CRC копии D0A1ED2D
Трек не обнаружен в базе AccurateRip
Копирование... OK
Трек 8
Имя файла C:\Users\Nornore\Documents\EAC rips\SchutzPsalmenDavids2and3CDreissue\08. Danket dem Herren, denn er ist freundlich (136. Psalm) SWV 32.wav
Пиковый уровень 98.8 %
Скорость извлечения 5.0 X
Качество трека 100.0 %
CRC теста 5B543943
CRC копии 5B543943
Трек не обнаружен в базе AccurateRip
Копирование... OK
Трек 9
Имя файла C:\Users\Nornore\Documents\EAC rips\SchutzPsalmenDavids2and3CDreissue\09. Zion spricht, der Herr hat mich verlassen SWV 46.wav
Пиковый уровень 98.8 %
Скорость извлечения 5.2 X
Качество трека 100.0 %
CRC теста 023976AB
CRC копии 023976AB
Трек не обнаружен в базе AccurateRip
Копирование... OK
Трек 10
Имя файла C:\Users\Nornore\Documents\EAC rips\SchutzPsalmenDavids2and3CDreissue\10. Lobe den Herren, meine Seele SWV 39.wav
Пиковый уровень 98.8 %
Скорость извлечения 5.4 X
Качество трека 100.0 %
CRC теста CF9F7C3E
CRC копии CF9F7C3E
Трек не обнаружен в базе AccurateRip
Копирование... OK
Трек 11
Имя файла C:\Users\Nornore\Documents\EAC rips\SchutzPsalmenDavids2and3CDreissue\11. Danket dem Herren, denn er ist freundlich (136. Psalm) SWV 45.wav
Пиковый уровень 91.5 %
Скорость извлечения 5.4 X
Качество трека 99.9 %
CRC теста 6CAED7DD
CRC копии 6CAED7DD
Трек не обнаружен в базе AccurateRip
Копирование... OK
Ни одного трека нет в базе AccurateRip
Ошибок не произошло
Конец отчёта
==== Контрольная сумма отчёта 8EB2C73483CBAD9171A02A9050B64E8DA870B6D6C2C7D0ED0A71C3EB242109E3 ====

Содержание индексной карты (.CUE)

REM GENRE Classical
REM DATE 1976
REM DISCID 9211D90B
REM COMMENT "ExactAudioCopy v1.0b3"
PERFORMER "Heinrich Schuetz / Dresdner Kreuzchor, Capella Fidicinia"
TITLE "Psalmen Davids SWV 22, 26-27, 30, 32, 37-39, 45-47"
FILE "01. Ich freu mich dies, das mir geredt ist (122. Psalm) SWV 26.wav" WAVE
TRACK 01 AUDIO
TITLE "Ich freu mich dies, das mir geredt ist (122. Psalm) SWV 26"
PERFORMER "Heinrich Schuetz / Dresdner Kreuzchor, Capella Fidicinia"
FLAGS DCP
INDEX 01 00:00:00
FILE "02. An den Wassern zu Babel sassen wir und weineten (137. Psalm) SWV 37.wav" WAVE
TRACK 02 AUDIO
TITLE "An den Wassern zu Babel sassen wir und weineten (137. Psalm) SWV 37"
PERFORMER "Heinrich Schuetz / Dresdner Kreuzchor, Capella Fidicinia"
FLAGS DCP
INDEX 01 00:00:00
FILE "03. Wohl dem, der den Herren fuerchtet (128. Psalm) SWV 30.wav" WAVE
TRACK 03 AUDIO
TITLE "Wohl dem, der den Herren fuerchtet (128. Psalm) SWV 30"
PERFORMER "Heinrich Schuetz / Dresdner Kreuzchor, Capella Fidicinia"
FLAGS DCP
INDEX 01 00:00:00
FILE "04. Alleluja, lobet den Herren in seinem Heiligtum (150. Psalm) SWV 38.wav" WAVE
TRACK 04 AUDIO
TITLE "Alleluja, lobet den Herren in seinem Heiligtum (150. Psalm) SWV 38"
PERFORMER "Heinrich Schuetz / Dresdner Kreuzchor, Capella Fidicinia"
FLAGS DCP
INDEX 01 00:00:00
FILE "05. Jauchzet dem Herren, alle Welt, singt, ruehmet, lobet SWV 47.wav" WAVE
TRACK 05 AUDIO
TITLE "Jauchzet dem Herren, alle Welt, singt, ruehmet, lobet SWV 47"
PERFORMER "Heinrich Schuetz / Dresdner Kreuzchor, Capella Fidicinia"
FLAGS DCP
INDEX 01 00:00:00
FILE "06. Der Herr sprach zu meinem Herren (110. Psalm) SWV 22.wav" WAVE
TRACK 06 AUDIO
TITLE "Der Herr sprach zu meinem Herren (110. Psalm) SWV 22"
PERFORMER "Heinrich Schuetz / Dresdner Kreuzchor, Capella Fidicinia"
FLAGS DCP
INDEX 01 00:00:00
FILE "07. Herr unser Herrscher, wie herrlich ist dein Name (8. Psalm) SWV 27.wav" WAVE
TRACK 07 AUDIO
TITLE "Herr unser Herrscher, wie herrlich ist dein Name (8. Psalm) SWV 27"
PERFORMER "Heinrich Schuetz / Dresdner Kreuzchor, Capella Fidicinia"
FLAGS DCP
INDEX 01 00:00:00
FILE "08. Danket dem Herren, denn er ist freundlich (136. Psalm) SWV 32.wav" WAVE
TRACK 08 AUDIO
TITLE "Danket dem Herren, denn er ist freundlich (136. Psalm) SWV 32"
PERFORMER "Heinrich Schuetz / Dresdner Kreuzchor, Capella Fidicinia"
FLAGS DCP
INDEX 01 00:00:00
FILE "09. Zion spricht, der Herr hat mich verlassen SWV 46.wav" WAVE
TRACK 09 AUDIO
TITLE "Zion spricht, der Herr hat mich verlassen SWV 46"
PERFORMER "Heinrich Schuetz / Dresdner Kreuzchor, Capella Fidicinia"
FLAGS DCP
INDEX 01 00:00:00
FILE "10. Lobe den Herren, meine Seele SWV 39.wav" WAVE
TRACK 10 AUDIO
TITLE "Lobe den Herren, meine Seele SWV 39"
PERFORMER "Heinrich Schuetz / Dresdner Kreuzchor, Capella Fidicinia"
FLAGS DCP
INDEX 01 00:00:00
FILE "11. Danket dem Herren, denn er ist freundlich (136. Psalm) SWV 45.wav" WAVE
TRACK 11 AUDIO
TITLE "Danket dem Herren, denn er ist freundlich (136. Psalm) SWV 45"
PERFORMER "Heinrich Schuetz / Dresdner Kreuzchor, Capella Fidicinia"
FLAGS DCP
INDEX 01 00:00:00
[teatrix.ru].t19975.torrent 
Торрент: Зарегистрирован [ 2016-03-19 00:39 ] · 0570343E2DD168ADA5D3D6168AE5CBD73DBA20E2

Скачать .torrent

Скачать

19 KB

Статус: проверено
Скачан: 0 раз
Размер: 385 MB
terms.php



Быстрый ответ

Имя:

      
Для отправки сообщений необходимо включить JavaScript
Показать сообщения:    

Текущее время: 03-Дек 14:33

Часовой пояс: UTC + 3


Вы можете начинать темы
Вы можете отвечать на сообщения
Вы не можете редактировать свои сообщения
Вы не можете удалять свои сообщения
Вы не можете голосовать в опросах
Вы не можете прикреплять файлы к сообщениям
Вы можете скачивать файлы