(Classical) Nicola Porpora - Arias 'Il Maestro' (Franco Fagioli, Alessandro De Marchi, Academia Montis Regalis) Naive V5369 - 2014, FLAC (image+.cue) lossless


 

[Цитировать]

Nicola Porpora - Arias 'Il Maestro' (Franco Fagioli, Alessandro De Marchi, Academia Montis Regalis)
Жанр: Classical
Год издания диска: 2014
Издатель (лейбл): Naïve
Номер по каталогу: V5369
Дата записи: 2014
Аудиокодек: FLAC
Тип рипа: image+.cue
Битрейт аудио: lossless
Продолжительность: 01:20:40
Источник: собственный рип
Наличие сканов в содержимом раздачи: да (только обложки)
Исполнители:
Franco Fagioli, countertenor
Academia Montis Regalis
Alessandro De Marchi, conductor
Треклист:
01. Se tu la reggi al volo (Ezio, Act I) (03:42)
02. Vorrei spiegar l'affanno (Semiramide riconosciuta, Act I) (06:36)
03. Gia si desta la tempesta (Didone abbandonata, Act III) (03:54)
04. Torbido intorno al core (Meride e Selinunte, Act II) (08:02)
05. Il pastor se torna aprile (Semiramide riconosciuta, Act II) (07:20)
06. Distillatevi o cieli (Il verbo in carne) (06:50)
07. Con alma intrepida (Meride e Selinunte, Act III) (03:47)
08. A voi ritorno campagne amene (Il ritiro) (07:47)
09. Nell'attendere il mio bene (Polifemo, Act II) (05:33)
10. Alto Giove (Polifemo, Act III) (09:18)
11. Spesso di nubi cinto (Carlo il Calvo, Act II) (07:50)
12. Non lasciar chi t'ama tanto (Vulcano) (10:01)

LOG EAC CD:

Exact Audio Copy V1.0 beta 3 from 29. August 2011
EAC extraction logfile from 2. January 2015, 22:20
Franco Fagioli, Alessandro De Marchi / Porpora arias
Used drive : PIONEER DVD-RW DVR-218L Adapter: 0 ID: 0
Read mode : Secure
Utilize accurate stream : Yes
Defeat audio cache : Yes
Make use of C2 pointers : No
Read offset correction : 6
Overread into Lead-In and Lead-Out : No
Fill up missing offset samples with silence : Yes
Delete leading and trailing silent blocks : No
Null samples used in CRC calculations : Yes
Used interface : Native Win32 interface for Win NT & 2000
Used output format : User Defined Encoder
Selected bitrate : 128 kBit/s
Quality : High
Add ID3 tag : No
Command line compressor : C:\Program Files (x86)\Exact Audio Copy\Flac\flac.exe
Additional command line options : -V -8 -T "Date=%year%" -T "Genre=%genre%" %source%
TOC of the extracted CD
Track | Start | Length | Start sector | End sector
---------------------------------------------------------
1 | 0:00.00 | 3:45.72 | 0 | 16946
2 | 3:45.72 | 6:35.64 | 16947 | 46635
3 | 10:21.61 | 3:53.53 | 46636 | 64163
4 | 14:15.39 | 8:01.41 | 64164 | 100279
5 | 22:17.05 | 7:19.71 | 100280 | 133275
6 | 29:37.01 | 6:49.49 | 133276 | 163999
7 | 36:26.50 | 3:46.54 | 164000 | 181003
8 | 40:13.29 | 7:46.11 | 181004 | 215964
9 | 47:59.40 | 5:32.47 | 215965 | 240911
10 | 53:32.12 | 9:17.28 | 240912 | 282714
11 | 62:49.40 | 7:50.02 | 282715 | 317966
12 | 70:39.42 | 9:56.15 | 317967 | 362681
Range status and errors
Selected range
Filename C:\Program Files (x86)\Exact Audio Copy\Flac\Porpora arias.wav
Peak level 100.0 %
Extraction speed 2.2 X
Range quality 100.0 %
Test CRC 01B7147B
Copy CRC 01B7147B
Copy OK
No errors occurred
AccurateRip summary
Track 1 not present in database
Track 2 not present in database
Track 3 not present in database
Track 4 not present in database
Track 5 not present in database
Track 6 not present in database
Track 7 not present in database
Track 8 not present in database
Track 9 not present in database
Track 10 not present in database
Track 11 not present in database
Track 12 not present in database
None of the tracks are present in the AccurateRip database
End of status report
---- CUETools DB Plugin V2.1.3
[CTDB TOCID: XOdSeogORaZCQcrXHmZeTb0b5gw-] found, Submit result: XOdSeogORaZCQcrXHmZeTb0b5gw- has been confirmed
[50b867eb] (6/6) Accurately ripped
==== Log checksum B0D749F3A0931EDA2B3135C6B18F59DFA222A6C1C1236B51D1B164733199AC15 ====
-mp3-



Показать сообщения:    

Текущее время: 10-Дек 11:49

Часовой пояс: UTC + 3


Вы не можете начинать темы
Вы не можете отвечать на сообщения
Вы не можете редактировать свои сообщения
Вы не можете удалять свои сообщения
Вы не можете голосовать в опросах
Вы не можете прикреплять файлы к сообщениям
Вы не можете скачивать файлы