Карпов против Каспарова. Вечный поединок / Karpov – Kasparov, Two Kings for a Crown (Жан-Шарль Дэнуа, Сергей Костин / Jean-Charles Deniau, Sergey Kostine) [2013, Документальный, история, биографии, спорт, политик, IPTVRip]


Статистика раздачи [Обновить пиров]
Размер:  801 MB   |    Зарегистрирован:  8 месяцев 15 дней   |    Скачан:  0 раз
Сидов:  1  [  0 KB/s  ]   Личеров:  3  [  0 KB/s  ]   Подробная статистика пиров
 
   
 
 
 

[Цитировать]

Карпов против Каспарова. Вечный поединок / Karpov – Kasparov, Two Kings for a Crown
Дата/Год выпуска: 2013
Страна: Франция, Roche Productions
Жанр: Документальный, история, биографии, спорт, политик
Продолжительность: 00:52:05
Перевод: Профессиональный (дублированный)
Русские субтитры: нет
Оригинальная аудиодорожка: нет
Режиссер: Жан-Шарль Дэнуа, Сергей Костин / Jean-Charles Deniau, Sergey Kostine
Телеканал: Viasat History
Описание: В ноябре 1985-го года в Ленинграде начался самый беспрецедентный поединок в истории шахмат. В борьбе за корону чемпиона мира сошлись два выдающихся гроссмейстера Анатолий Карпов и Гарри Каспаров. Программа рассказывает о 25-ти летнем поединке между этими двумя великими шахматистами. Развернувшееся накануне распада Советского Союза, это было не просто сражение белых и черных фигур на шахматной доске, но и соперничество двух политических позиций.
Сэмпл: http://multi-up.com/1024265
качество: IPTVRip
формат: AVI
Видео: 720x400 (1.80:1), 25 fps, XviD build 66 ~1946 kbps avg, 0.27 bit/pixel
Аудио: 48 kHz, AC3 Dolby Digital, 2/0 (L,R) ch, ~192 kbps

MediaInfo

General
Complete name : E:\Pshichko66\Na zapis'\Документальные фильмы\Karpov protiv Kasparova. Vechniy poedinok.avi
Format : AVI
Format/Info : Audio Video Interleave
File size : 801 MiB
Duration : 52mn 5s
Overall bit rate : 2 149 Kbps
Writing application : VirtualDubMod 1.5.10.2 (build 2540/release)
Writing library : VirtualDubMod build 2540/release
Video
ID : 0
Format : MPEG-4 Visual
Format profile : Advanced Simple@L5
Format settings, BVOP : 2
Format settings, QPel : No
Format settings, GMC : No warppoints
Format settings, Matrix : Custom
Codec ID : XVID
Codec ID/Hint : XviD
Duration : 52mn 5s
Bit rate : 1 947 Kbps
Width : 720 pixels
Height : 400 pixels
Display aspect ratio : 16:9
Frame rate : 25.000 fps
Color space : YUV
Chroma subsampling : 4:2:0
Bit depth : 8 bits
Scan type : Progressive
Compression mode : Lossy
Bits/(Pixel*Frame) : 0.270
Stream size : 725 MiB (91%)
Writing library : XviD 66
Audio
ID : 1
Format : AC-3
Format/Info : Audio Coding 3
Mode extension : CM (complete main)
Format settings, Endianness : Big
Codec ID : 2000
Duration : 52mn 5s
Bit rate mode : Constant
Bit rate : 192 Kbps
Channel count : 2 channels
Channel positions : Front: L R
Sampling rate : 48.0 KHz
Bit depth : 16 bits
Compression mode : Lossy
Stream size : 71.5 MiB (9%)
Alignment : Split accross interleaves
Interleave, duration : 40 ms (1.00 video frame)
Interleave, preload duration : 500 ms

Скриншоты

[teatrix.ru].t19980.torrent 
Торрент: Зарегистрирован [ 2016-03-19 00:39 ] · 0BC2056BFE41FA09A9F776F7F2F76E7493AE4C6F

Скачать .torrent

Скачать

16 KB

Статус: проверено
Скачан: 0 раз
Размер: 801 MB
terms.php



Быстрый ответ

Имя:

      
Для отправки сообщений необходимо включить JavaScript
Показать сообщения:    

Текущее время: 03-Дек 16:43

Часовой пояс: UTC + 3


Вы можете начинать темы
Вы можете отвечать на сообщения
Вы не можете редактировать свои сообщения
Вы не можете удалять свои сообщения
Вы не можете голосовать в опросах
Вы не можете прикреплять файлы к сообщениям
Вы можете скачивать файлы