(Classical) Ernest Bloch - Suite for Viola and Orchestra; Baal Shem; Suite hebraique - Hong-Mei Xiao, Budapest Symphony Orchestra MAV, Mariusz Smolij - 2013, FLAC (image+.cue) lossless


 

[Цитировать]

Ernest Bloch - Suite for Viola and Orchestra; Baal Shem; Suite hébraïque - Hong-Mei Xiao, Budapest Symphony Orchestra MÁV, Mariusz Smolij
Жанр: Classical
Год издания диска: 2013
Издатель (лейбл): Naxos
Номер по каталогу: 8.570829
Дата записи: 2010, 2011
Аудиокодек: FLAC
Тип рипа: image+.cue
Битрейт аудио: lossless
Продолжительность: 61:02
Источник: собственный рип
Наличие сканов в содержимом раздачи: да
Треклист:
Ernest Bloch (1880-1959)
[1]-[3] Baal Shem (Three Pictures of Chassidic Life)
(arr. Hong-Mei Xiao for viola and orchestra) (1923/2005)
[4]-[7] Suite for Viola and Orchestra (1919)
[8]-[10] Suite hébraïque (1951)
Исполнители:
Hong-Mei Xiao viola
Budapest Symphony Orchestra MÁV
Mariusz Smolij

Лог создания рипа

Exact Audio Copy V1.0 beta 3 from 29. August 2011
EAC extraction logfile from 18. December 2014, 1:48
Hong-Mei Xiao, Budapest Symphony Orchestra MAV, Mariusz Smolij / Bloch - Suite for Viola and Orchestra
Used drive : HL-DT-STDVDRAM GU70N Adapter: 0 ID: 0
Read mode : Secure
Utilize accurate stream : Yes
Defeat audio cache : Yes
Make use of C2 pointers : No
Read offset correction : 48
Overread into Lead-In and Lead-Out : No
Fill up missing offset samples with silence : Yes
Delete leading and trailing silent blocks : No
Null samples used in CRC calculations : Yes
Used interface : Native Win32 interface for Win NT & 2000
Used output format : User Defined Encoder
Selected bitrate : 128 kBit/s
Quality : High
Add ID3 tag : No
Command line compressor : C:\Program Files (x86)\Exact Audio Copy\Flac\flac.exe
Additional command line options : -V -8 -T "Date=%year%" -T "Genre=%genre%" %source%
TOC of the extracted CD
Track | Start | Length | Start sector | End sector
---------------------------------------------------------
1 | 0:00.00 | 3:22.69 | 0 | 15218
2 | 3:22.69 | 6:42.30 | 15219 | 45398
3 | 10:05.24 | 4:52.39 | 45399 | 67337
4 | 14:57.63 | 13:26.50 | 67338 | 127837
5 | 28:24.38 | 5:38.17 | 127838 | 153204
6 | 34:02.55 | 5:27.38 | 153205 | 177767
7 | 39:30.18 | 9:04.64 | 177768 | 218631
8 | 48:35.07 | 6:22.21 | 218632 | 247302
9 | 54:57.28 | 2:20.42 | 247303 | 257844
10 | 57:17.70 | 3:42.05 | 257845 | 274499
Range status and errors
Selected range
Filename C:\temp\Naxos_8.570829 - Bloch - Suite for Viola and Orchestra\Bloch - Suite for Viola and Orchestra.wav
Peak level 94.9 %
Extraction speed 5.0 X
Range quality 100.0 %
Test CRC D82B0F48
Copy CRC D82B0F48
Copy OK
No errors occurred
AccurateRip summary
Track 1 accurately ripped (confidence 4) [AE15125F] (AR v2)
Track 2 accurately ripped (confidence 4) [D250B86E] (AR v2)
Track 3 accurately ripped (confidence 4) [A3D5D9B4] (AR v2)
Track 4 accurately ripped (confidence 4) [1DB162A8] (AR v2)
Track 5 accurately ripped (confidence 4) [6E032A84] (AR v2)
Track 6 accurately ripped (confidence 4) [CB118E8D] (AR v2)
Track 7 accurately ripped (confidence 4) [DB6EFD5D] (AR v2)
Track 8 accurately ripped (confidence 4) [9968F3DB] (AR v2)
Track 9 accurately ripped (confidence 4) [BB230171] (AR v2)
Track 10 accurately ripped (confidence 4) [5978DD6F] (AR v2)
All tracks accurately ripped
End of status report
==== Log checksum 84F0C44C56490230830949C5170659C03F054A8B52FEEF7338590618C1F03164 ====



Показать сообщения:    

Текущее время: 07-Дек 21:24

Часовой пояс: UTC + 3


Вы не можете начинать темы
Вы не можете отвечать на сообщения
Вы не можете редактировать свои сообщения
Вы не можете удалять свои сообщения
Вы не можете голосовать в опросах
Вы не можете прикреплять файлы к сообщениям
Вы не можете скачивать файлы