(Classical / Ballet) Bartok - Il principe di legno • Il mandarino meravigliose (Orchestra E Coro Del Teatro La Fenice, pesko) - 2001, APE (image+.cue) lossless


Статистика раздачи [Обновить пиров]
Размер:  292 MB   |    Зарегистрирован:  8 месяцев 18 дней   |    Скачан:  0 раз

Полного источника не было: Никогда

Личеров:  14  [  0 KB/s  ]   Подробная статистика пиров
 
   
 
 
 

[Цитировать]

Bela Bartok - Il principe di legno • Il mandarino meravigliose
Жанр: Classical / Ballet
Страна-производитель диска: Germany
Год издания диска: 2001
Издатель (лейбл): Mondo Musica
Номер по каталогу: MFON 22255
Дата записи: 1998
Аудиокодек: APE
Тип рипа: image+.cue
Битрейт аудио: lossless
Продолжительность: 46'30+32'50
Источник: собственный рип
Наличие сканов в содержимом раздачи: да
Треклист:
Il principe di legno
Ispirato al soggetto di Béla Balázs
musica di Béla Bartók
01 Preludio - Danza - Interludio
02 Danza
03 Danza e Interludio
04 Danza e Interludio
05 Danza
06 Danza
07 Danza e Postludio
Il Mandarino Meraviglioso
Ispirato al soggetto di Menyhért Lengyei
musica di Béla Bartók
01 Preludio
02 Primo gioco di seduzione
03 Secondo gioco di seduzione
04 Terzo gioco di seduzione
Исполнители:
Orchestra E Coro Del Teatro La Fenice
direttore Zoltan Pesko

Лог создания рипа

CD1

Exact Audio Copy V1.0 beta 3 from 29. August 2011
EAC extraction logfile from 28. December 2014, 16:27
Bartók / Il Principe Di Legno, Pesko
Used drive : TSSTcorpCDDVDW SE-208AB Adapter: 1 ID: 0
Read mode : Secure
Utilize accurate stream : Yes
Defeat audio cache : Yes
Make use of C2 pointers : No
Read offset correction : 6
Overread into Lead-In and Lead-Out : No
Fill up missing offset samples with silence : Yes
Delete leading and trailing silent blocks : No
Null samples used in CRC calculations : Yes
Used interface : Native Win32 interface for Win NT & 2000
Used output format : Monkey's Audio Lossless Encoder
Selected bitrate : High Lossless Compression
Quality : High
Add ID3 tag : Yes
Command line compressor : C:\Program Files (x86)\Exact Audio Copy\MAC\MAC.exe
TOC of the extracted CD
Track | Start | Length | Start sector | End sector
---------------------------------------------------------
1 | 0:00.00 | 9:30.67 | 0 | 42816
2 | 9:30.67 | 10:13.30 | 42817 | 88821
3 | 19:44.22 | 4:45.13 | 88822 | 110209
4 | 24:29.35 | 5:45.36 | 110210 | 136120
5 | 30:14.71 | 5:10.74 | 136121 | 159444
6 | 35:25.70 | 5:04.66 | 159445 | 182310
7 | 40:30.61 | 3:56.04 | 182311 | 200014
Range status and errors
Selected range
Filename D:\EAC\Bartók - Il Principe Di Legno, Pesko.wav
Peak level 100.0 %
Extraction speed 1.7 X
Range quality 100.0 %
Test CRC 60CA13DC
Copy CRC 60CA13DC
Copy OK
No errors occurred
AccurateRip summary
Track 1 accurately ripped (confidence 1) [09430C7C] (AR v1)
Track 2 accurately ripped (confidence 1) [A5415DAB] (AR v1)
Track 3 accurately ripped (confidence 1) [97209E9A] (AR v1)
Track 4 accurately ripped (confidence 1) [300CFD0C] (AR v1)
Track 5 accurately ripped (confidence 1) [0D90FA76] (AR v1)
Track 6 accurately ripped (confidence 1) [5E4480AC] (AR v1)
Track 7 accurately ripped (confidence 1) [01E034DE] (AR v1)
All tracks accurately ripped
End of status report
---- CUETools DB Plugin V2.1.3
[CTDB TOCID: VbBpl14bHZ_GK_MBNx.ePC3WQmo-] disk not present in database, Submit result: VbBpl14bHZ_GK_MBNx.ePC3WQmo- has been uploaded
==== Log checksum FE34E6E169D1EA758BC8A162B660792290F53EBA40C3C2C3F47F5CC5B75A15E9 ====

CD2

Exact Audio Copy V1.0 beta 3 from 29. August 2011
EAC extraction logfile from 28. December 2014, 16:24
Bartók / Il Mandarino Meraviglioso, Pesko
Used drive : TS8XDVDSTRANSCEND Adapter: 1 ID: 1
Read mode : Secure
Utilize accurate stream : Yes
Defeat audio cache : Yes
Make use of C2 pointers : No
Read offset correction : 6
Overread into Lead-In and Lead-Out : No
Fill up missing offset samples with silence : Yes
Delete leading and trailing silent blocks : No
Null samples used in CRC calculations : Yes
Used interface : Native Win32 interface for Win NT & 2000
Used output format : Monkey's Audio Lossless Encoder
Selected bitrate : High Lossless Compression
Quality : High
Add ID3 tag : Yes
Command line compressor : C:\Program Files (x86)\Exact Audio Copy\MAC\MAC.exe
TOC of the extracted CD
Track | Start | Length | Start sector | End sector
---------------------------------------------------------
1 | 0:00.00 | 3:00.43 | 0 | 13542
2 | 3:00.43 | 8:43.11 | 13543 | 52778
3 | 11:43.54 | 10:27.09 | 52779 | 99812
4 | 22:10.63 | 10:31.01 | 99813 | 147138
Range status and errors
Selected range
Filename D:\EAC\Bartók - Il Mandarino Meraviglioso, Pesko.wav
Peak level 88.3 %
Extraction speed 1.6 X
Range quality 100.0 %
Test CRC BA869673
Copy CRC BA869673
Copy OK
No errors occurred
AccurateRip summary
Track 1 accurately ripped (confidence 1) [7CA54649] (AR v1)
Track 2 accurately ripped (confidence 1) [BDC1F19A] (AR v1)
Track 3 accurately ripped (confidence 1) [F2419E27] (AR v1)
Track 4 accurately ripped (confidence 1) [1EC68200] (AR v1)
All tracks accurately ripped
End of status report
---- CUETools DB Plugin V2.1.3
[CTDB TOCID: s3ULP8SFW0qArEKJM3qbofbZ4zE-] disk not present in database, Submit result: unrecognized or virtual drive
==== Log checksum 113CA857C24832FF4F6C5692556E0DD2940E87B5A69B2F609D1BF4C1E2B5D258 ====

Содержание индексной карты (.CUE)

CD1

REM GENRE Ballet
REM DATE 1998
REM DISCID 540A6A07
REM COMMENT "ExactAudioCopy v1.0b3"
PERFORMER "Bartók"
TITLE "Il Principe Di Legno, Pesko"
FILE "Bartók - Il Principe Di Legno, Pesko.ape" WAVE
TRACK 01 AUDIO
TITLE "01 Preludio - Danza - Interludio"
PERFORMER "Bartók"
ISRC 000000000000
INDEX 01 00:00:00
TRACK 02 AUDIO
TITLE "02 Danza"
PERFORMER "Bartók"
ISRC 000000000000
INDEX 01 09:30:67
TRACK 03 AUDIO
TITLE "03 Danza e Interludio"
PERFORMER "Bartók"
ISRC 000000000000
INDEX 01 19:44:22
TRACK 04 AUDIO
TITLE "04 Danza e Interludio"
PERFORMER "Bartók"
ISRC 000000000000
INDEX 01 24:29:35
TRACK 05 AUDIO
TITLE "05 Danza"
PERFORMER "Bartók"
ISRC 000000000000
INDEX 01 30:14:71
TRACK 06 AUDIO
TITLE "06 Danza"
PERFORMER "Bartók"
ISRC 000000000000
INDEX 01 35:25:70
TRACK 07 AUDIO
TITLE "07 Danza e Postludio"
PERFORMER "Bartók"
ISRC 000000000000
INDEX 01 40:30:61

CD2

REM GENRE Ballet
REM DATE 1998
REM DISCID 2207A904
REM COMMENT "ExactAudioCopy v1.0b3"
PERFORMER "Bartók"
TITLE "Il Mandarino Meraviglioso, Pesko"
FILE "Bartók - Il Mandarino Meraviglioso, Pesko.ape" WAVE
TRACK 01 AUDIO
TITLE "01 Preludio"
PERFORMER "Bartók"
ISRC 000000000000
INDEX 01 00:00:00
TRACK 02 AUDIO
TITLE "02 Primo gioco di seduzione"
PERFORMER "Bartók"
ISRC 000000000000
INDEX 01 03:00:43
TRACK 03 AUDIO
TITLE "03 Secondo gioco di seduzione"
PERFORMER "Bartók"
ISRC 000000000000
INDEX 01 11:43:54
TRACK 04 AUDIO
TITLE "04 Terzo gioco di seduzione"
PERFORMER "Bartók"
ISRC 000000000000
INDEX 01 22:10:63
Доп. информация:
After the outbreak of World War I Bartok returned to composing, writing the ballet The Wooden Prince (1914–16) and the String Quartet No. 2 in (1915–17), both influenced by Debussy.
Bartók wrote another ballet, The Miraculous Mandarin influenced by Igor Stravinsky, Arnold Schoenberg, as well as Richard Strauss.
He next wrote his two violin sonatas (written in 1921 and 1922 respectively), which are harmonically and structurally some of his most complex pieces.
The Miraculous Mandarin, a modern story of prostitution, robbery, and murder, was started in 1918, but not performed until 1926 because of its sexual content.
[teatrix.ru].t19985.torrent 
Торрент: Зарегистрирован [ 2016-03-19 00:41 ] · 76FA184F4C5FCAD24CC0DA8B53E0C1367484B1C0

Скачать .torrent

Скачать

13 KB

Статус: проверено
Скачан: 0 раз
Размер: 292 MB
terms.php



Быстрый ответ

Имя:

      
Для отправки сообщений необходимо включить JavaScript
Показать сообщения:    

Текущее время: 06-Дек 13:13

Часовой пояс: UTC + 3


Вы можете начинать темы
Вы можете отвечать на сообщения
Вы не можете редактировать свои сообщения
Вы не можете удалять свои сообщения
Вы не можете голосовать в опросах
Вы не можете прикреплять файлы к сообщениям
Вы можете скачивать файлы