В поисках пятого элемента. (Фильм про фильм "Пятый элемент") / Searhing of fifth element (Фрэд Гарсон) [1997, документальный, DVDRip]


Статистика раздачи [Обновить пиров]
Размер:  561 MB   |    Зарегистрирован:  8 месяцев 19 дней   |    Скачан:  0 раз

Полного источника не было: Никогда

Личеров:  15  [  0 KB/s  ]   Подробная статистика пиров
 
   
 
 
 

[Цитировать]

В поисках пятого элемента. (Фильм про фильм "Пятый элемент") / Searhing of fifth element
Дата/Год выпуска: 1997
Страна: США
Жанр: документальный
Продолжительность: 00:22:19
Перевод: Профессиональный (двухголосый закадровый)
Русские субтитры: нет
Оригинальная аудиодорожка: нет
Режиссер: Фрэд Гарсон
Телеканал: HBO
Описание: Документальный фильм о съемках худ. фильма "Пятый элемент". Комментарии режиссера Люка Бессона, актеров которые принимали участие фильме и многое другое.
Очень интересный фильм для любителей кино.
Сэмпл: http://sendfile.su/1069273
качество: DVDRip
формат: AVI
Видео: XVID, 720 x 544, 1.3235, 2215 кб/с, 25.000
Аудио: Dolby AC3, 192kbps, 48000Hz, stereo

MediaInfo

General
Complete name : c:\Documents and Settings\User\Рабочий стол\(1997) В поисках 5-го элемента - Searching of fifth element_agk.avi
Format : AVI
Format/Info : Audio Video Interleave
File size : 385 MiB
Duration : 22mn 19s
Overall bit rate : 2 414 Kbps
Writing application : VirtualDubMod 1.5.4.1 (build 2178/release)
Writing library : VirtualDubMod build 2178/release
Video
ID : 0
Format : MPEG-4 Visual
Format profile : Advanced Simple@L5
Format settings, BVOP : Yes
Format settings, QPel : No
Format settings, GMC : No warppoints
Format settings, Matrix : Custom
Codec ID : XVID
Codec ID/Hint : XviD
Duration : 22mn 19s
Bit rate : 2 215 Kbps
Width : 720 pixels
Height : 544 pixels
Display aspect ratio : 4:3
Frame rate : 25.000 fps
Color space : YUV
Chroma subsampling : 4:2:0
Bit depth : 8 bits
Scan type : Progressive
Compression mode : Lossy
Bits/(Pixel*Frame) : 0.226
Stream size : 354 MiB (92%)
Writing library : XviD 64
Audio
ID : 1
Format : AC-3
Format/Info : Audio Coding 3
Mode extension : CM (complete main)
Format settings, Endianness : Big
Codec ID : 2000
Duration : 22mn 18s
Bit rate mode : Constant
Bit rate : 192 Kbps
Channel(s) : 2 channels
Channel positions : Front: L R
Sampling rate : 48.0 KHz
Bit depth : 16 bits
Compression mode : Lossy
Stream size : 30.6 MiB (8%)
Alignment : Split accross interleaves
Interleave, duration : 96 ms (2.40 video frames)
Interleave, preload duration : 96 ms

Скриншоты


НА РОЗДАЧЕ СТОЮ НЕДЕЛЮ,
ДАЛЬШЕ УДАЛЯЮ МАТЕРИАЛ.
КОМУ ВАЖНО ОСТАВАЙТЕСЬ НА РАЗДАЧЕ.
(при отсуствии сидово пишите в личку, может чем помогу)
[teatrix.ru].t19986.torrent 
Торрент: Зарегистрирован [ 2016-03-19 00:41 ] · DF27D5F469918742A6FA5CC5AF8F4634CCFA4032

Скачать .torrent

Скачать

12 KB

Статус: проверено
Скачан: 0 раз
Размер: 561 MB
terms.php



Показать сообщения:    

Текущее время: 07-Дек 11:40

Часовой пояс: UTC + 3


Вы не можете начинать темы
Вы не можете отвечать на сообщения
Вы не можете редактировать свои сообщения
Вы не можете удалять свои сообщения
Вы не можете голосовать в опросах
Вы не можете прикреплять файлы к сообщениям
Вы можете скачивать файлы