АББА. Даба Ду / ABBA. Dabba Dooo (Леонард Еek/ Leonard Eek) [04/01/2015, Документальный, биография, DVB-Т2, т.к. Культура]


Статистика раздачи [Обновить пиров]
Размер:  1.18 GB   |    Зарегистрирован:  8 месяцев 15 дней   |    Скачан:  0 раз

Полного источника не было: Никогда

Личеров:  15  [  0 KB/s  ]   Подробная статистика пиров
 
   
 
 
 

[Цитировать]

АББА. Даба Ду / ABBA. Dabba Dooo
Дата/Год выпуска: 04/01/2015
Страна: Швеция
Жанр: Документальный, биография
Продолжительность: 00:56:28
Перевод: Двухголосый закадровый
Русские субтитры: нет
Режиссер: Леонард Еек / Leonard Eek
Телеканал: Культура
Описание: История создания легендарной и суперпопулярной поп-группы "AББA". Интервью с музыкантами, фрагменты композиций, принесших известность группе, исторические справки о каждом из участников - все это послужило основой фильма.
Раздача группы:
Сэмпл
качество: DVB-Т2
формат: TS
Видео: MPEG4 (H264) 720x576 (4:3), 2585 kbps, 25.00fps 0.249 bit/pixel
Аудио: MP-2, 2 ch, 48,0 КГц, 192 kbps

MediaInfo

D:\видео\АББА. Даба Ду.ts
General #1
ID : 1 (0x1)
Complete name : D:\видео\АББА. Даба Ду.ts
Format : MPEG-TS
File size : 1.18 GiB
Duration : 56mn 28s
Overall bit rate : 2 996 Kbps
Video #1061
ID : 1061 (0x425)
Menu ID : 1 (0x1)
Format : AVC
Format/Info : Advanced Video Codec
Format profile : Main@L3.0
Format settings, CABAC : Yes
Format settings, ReFrames : 3 frames
Format settings, GOP : M=4, N=28
Codec ID : 27
Duration : 56mn 28s
Bit rate : 2 654 Kbps
Width : 720 pixels
Height : 576 pixels
Display aspect ratio : 4:3
Frame rate : 25.000 fps
Standard : Component
Color space : YUV
Chroma subsampling : 4:2:0
Bit depth : 8 bits
Scan type : Interlaced
Scan order : Top Field First
Bits/(Pixel*Frame) : 0.256
Stream size : 1.05 GiB (89%)
Color primaries : BT.470-6 System B, BT.470-6 System G, BT.601-6 625, BT.1358 625, BT.1700 625 PAL, BT.1700 625 SECAM
Transfer characteristics : BT.470-6 System B, BT.470-6 System G
Matrix coefficients : BT.470-6 System B, BT.470-6 System G, BT.601-6 625, BT.1358 625, BT.1700 625 PAL, BT.1700 625 SECAM, IEC 61966-2-4 601
Audio #1062
ID : 1062 (0x426)
Menu ID : 1 (0x1)
Format : MPEG Audio
Format version : Version 1
Format profile : Layer 2
Codec ID : 3
Duration : 56mn 28s
Bit rate mode : Constant
Bit rate : 192 Kbps
Channel(s) : 2 channels
Sampling rate : 48.0 KHz
Compression mode : Lossy
Stream size : 77.6 MiB (6%)
Language : English
Text #1064-100
ID : 1064 (0x428)-100
Menu ID : 1 (0x1)
Format : Teletext Subtitle
Language : Russian

Скриншоты

Торрент файл перезалил, причина - http://screenshotcomparison.com/comparison/107395/picture:0
[teatrix.ru].t19987.torrent 
Торрент: Зарегистрирован [ 2016-03-19 00:41 ] · 03FC85AC2CDEC0E7B07F9203ACCC8EBBDC0398E0

Скачать .torrent

Скачать

12 KB

Статус: проверено
Скачан: 0 раз
Размер: 1.18 GB
terms.php



Быстрый ответ

Имя:

      
Для отправки сообщений необходимо включить JavaScript
Показать сообщения:    

Текущее время: 03-Дек 18:37

Часовой пояс: UTC + 3


Вы можете начинать темы
Вы можете отвечать на сообщения
Вы не можете редактировать свои сообщения
Вы не можете удалять свои сообщения
Вы не можете голосовать в опросах
Вы не можете прикреплять файлы к сообщениям
Вы можете скачивать файлы