(Ouvertures) J.S. Bach - Ouverturen {Complete Orchestral Suites} (Freiburger Barockorchester [Freiburg Baroque Orchestra], Gottfried von der Goltz, Petra Mullejans) - 2011, FLAC (image+.cue) lossless


 

[Цитировать]

Johann Sebastian Bach - Ouvertüren (Complete Orchestral Suites)Freiburger Barockorchester Жанр: Ouvertures
Страна-производитель диска: Austria
Год издания диска: 2011
Издатель (лейбл): Harmonia Mundi
Номер по каталогу: HMC902113.14
Дата записи: 2011
Аудиокодек: FLAC
Тип рипа: image+.cue
Битрейт аудио: lossless
Продолжительность: 1:33:39
Источник: скачано с odeonmusic
Наличие сканов в содержимом раздачи: да (буклет в pdf)
Треклист:
CD 1
Suite No. 4 in D major, BWV 1069
1 1. Ouverture 11:26
2 2. Bourrées 1 & 2 2:50
3 3. Gavotte 1:55
4 4. Menuets 1 & 2 alternativement 4:14
5 5. Réjouissance 2:34
Suite No. 2 in B minor, BWV 1067
6 1. Ouverture 10:41
7 2. Rondeau 1:28
8 3. Sarabande 2:36
9 4. Bourrées 1 & 2 alternativement 2:04
10 5. Polonaise & Double 3:17
11 6. Menuet 1:05
12 7. Badinerie 1:23
CD 2
Suite No. 1 in C major, BWV 1066
1 1. Ouverture 9:17
2 2. Courante 2:18
3 3. Gavottes 1 & 2 alternativement 3:13
4 4. Forlane 1:13
5 5. Menuets 1 & 2 alternativement 3:15
6 6. Bourrées 1 & 2 alternativement 2:42
7 7. Passepieds 1 & 2 3:31
Suite No. 3 in D major, BWv 1068
8 1. Ouverture 9:49
9 2. Air 4:37
10 3. Gavottes 1 & 2 alternativement 4:00
11 4. Bourrée 1:10
12 5. Gigue 2:47

Исполнители:

Freiburger Barockorchester
Gottfried von der Goltz/ Petra Müllejans - solo violins and musical direction

Лог создания рипа

Лог создания рипа CD1

Exact Audio Copy V1.0 beta 3 from 29. August 2011
EAC extraction logfile from 15. December 2014, 19:09
Freiburger Barockorchester / Bach - Orchestral Suites - Freiburger Barockorchester (Disc 1)
Used drive : TSSTcorpCDDVDW SH-222BB Adapter: 2 ID: 1
Read mode : Secure
Utilize accurate stream : Yes
Defeat audio cache : Yes
Make use of C2 pointers : No
Read offset correction : 6
Overread into Lead-In and Lead-Out : No
Fill up missing offset samples with silence : Yes
Delete leading and trailing silent blocks : No
Null samples used in CRC calculations : Yes
Used interface : Native Win32 interface for Win NT & 2000
Used output format : User Defined Encoder
Selected bitrate : 896 kBit/s
Quality : High
Add ID3 tag : No
Command line compressor : C:\Program Files\Exact Audio Copy\FLAC\FLAC.EXE
Additional command line options : -8 -V -T "TITLE=%title%" -T "ARTIST=%artist%" -T "ALBUMARTIST=%albumartist%" -T "ALBUM=%albumtitle%" -T "DATE=%year%" -T "TRACKNUMBER=%tracknr%" -T "TRACKTOTAL=%numtracks%" -T "GENRE=%genre%" -T "COMMENT=%comment%" -T "PERFORMER=%albuminterpret%" -T "COMPOSER=%composer%" %source% -o %dest%
TOC of the extracted CD
Track | Start | Length | Start sector | End sector
---------------------------------------------------------
1 | 0:00.00 | 11:26.36 | 0 | 51485
2 | 11:26.36 | 2:50.38 | 51486 | 64273
3 | 14:16.74 | 1:55.16 | 64274 | 72914
4 | 16:12.15 | 4:14.69 | 72915 | 92033
5 | 20:27.09 | 2:34.48 | 92034 | 103631
6 | 23:01.57 | 10:41.72 | 103632 | 151778
7 | 33:43.54 | 1:28.55 | 151779 | 158433
8 | 35:12.34 | 2:36.62 | 158434 | 170195
9 | 37:49.21 | 2:04.45 | 170196 | 179540
10 | 39:53.66 | 3:17.38 | 179541 | 194353
11 | 43:11.29 | 1:05.11 | 194354 | 199239
12 | 44:16.40 | 1:23.32 | 199240 | 205496
Range status and errors
Selected range
Filename G:\Ripped general\[7605] Bach – Orchestral Suites – Freiburger Barockorchester\cd1\Bach - Orchestral Suites - Freiburger Barockorchester (Disc 1).wav
Peak level 96.6 %
Extraction speed 6.1 X
Range quality 100.0 %
Test CRC FCDAFFEB
Copy CRC FCDAFFEB
Copy OK
No errors occurred
AccurateRip summary
Track 1 accurately ripped (confidence 47) [3429005E] (AR v2)
Track 2 accurately ripped (confidence 47) [E061FEC3] (AR v2)
Track 3 accurately ripped (confidence 47) [A0924F37] (AR v2)
Track 4 accurately ripped (confidence 47) [33070B0C] (AR v2)
Track 5 accurately ripped (confidence 47) [B01DB6A7] (AR v2)
Track 6 accurately ripped (confidence 47) [4C1FEE8C] (AR v2)
Track 7 accurately ripped (confidence 47) [BA89231F] (AR v2)
Track 8 accurately ripped (confidence 47) [C0C4D355] (AR v2)
Track 9 accurately ripped (confidence 47) [E7B1A7C9] (AR v2)
Track 10 accurately ripped (confidence 47) [F0C431A3] (AR v2)
Track 11 accurately ripped (confidence 47) [BAF40615] (AR v2)
Track 12 accurately ripped (confidence 47) [F1A2374E] (AR v2)
All tracks accurately ripped
End of status report
==== Log checksum 6628499FE13127C14ADEB2EB47E767BAD1F4705927FB2088168BAD127C285F43 ====

Лог создания рипа CD2

Exact Audio Copy V1.0 beta 3 from 29. August 2011
EAC extraction logfile from 15. December 2014, 19:33
Freiburger Barockorchester / Bach - Orchestral Suites - Freiburger Barockorchester (Disc 2)
Used drive : TSSTcorpCDDVDW SH-222BB Adapter: 2 ID: 1
Read mode : Secure
Utilize accurate stream : Yes
Defeat audio cache : Yes
Make use of C2 pointers : No
Read offset correction : 6
Overread into Lead-In and Lead-Out : No
Fill up missing offset samples with silence : Yes
Delete leading and trailing silent blocks : No
Null samples used in CRC calculations : Yes
Used interface : Native Win32 interface for Win NT & 2000
Used output format : User Defined Encoder
Selected bitrate : 896 kBit/s
Quality : High
Add ID3 tag : No
Command line compressor : C:\Program Files\Exact Audio Copy\FLAC\FLAC.EXE
Additional command line options : -8 -V -T "TITLE=%title%" -T "ARTIST=%artist%" -T "ALBUMARTIST=%albumartist%" -T "ALBUM=%albumtitle%" -T "DATE=%year%" -T "TRACKNUMBER=%tracknr%" -T "TRACKTOTAL=%numtracks%" -T "GENRE=%genre%" -T "COMMENT=%comment%" -T "PERFORMER=%albuminterpret%" -T "COMPOSER=%composer%" %source% -o %dest%
TOC of the extracted CD
Track | Start | Length | Start sector | End sector
---------------------------------------------------------
1 | 0:00.00 | 9:17.70 | 0 | 41844
2 | 9:17.70 | 2:18.69 | 41845 | 52263
3 | 11:36.64 | 3:13.55 | 52264 | 66793
4 | 14:50.44 | 1:13.22 | 66794 | 72290
5 | 16:03.66 | 3:15.63 | 72291 | 86978
6 | 19:19.54 | 2:42.21 | 86979 | 99149
7 | 22:02.00 | 3:31.69 | 99150 | 115043
8 | 25:33.69 | 9:49.11 | 115044 | 159229
9 | 35:23.05 | 4:37.54 | 159230 | 180058
10 | 40:00.59 | 4:00.31 | 180059 | 198089
11 | 44:01.15 | 1:10.16 | 198090 | 203355
12 | 45:11.31 | 2:47.50 | 203356 | 215930
Range status and errors
Selected range
Filename G:\Ripped general\[7605] Bach – Orchestral Suites – Freiburger Barockorchester\cd2\Bach - Orchestral Suites - Freiburger Barockorchester (Disc 2).wav
Peak level 96.6 %
Extraction speed 6.0 X
Range quality 99.9 %
Test CRC ADA949AE
Copy CRC ADA949AE
Copy OK
No errors occurred
AccurateRip summary
Track 1 accurately ripped (confidence 46) [0888DFE2] (AR v2)
Track 2 accurately ripped (confidence 46) [9B5A42BF] (AR v2)
Track 3 accurately ripped (confidence 46) [E939E8C4] (AR v2)
Track 4 accurately ripped (confidence 46) [64EAE6C7] (AR v2)
Track 5 accurately ripped (confidence 46) [70EBE5A9] (AR v2)
Track 6 accurately ripped (confidence 46) [E9BEE1C4] (AR v2)
Track 7 accurately ripped (confidence 46) [448176A7] (AR v2)
Track 8 accurately ripped (confidence 46) [69B53925] (AR v2)
Track 9 accurately ripped (confidence 46) [2BCDE440] (AR v2)
Track 10 accurately ripped (confidence 46) [418C2761] (AR v2)
Track 11 accurately ripped (confidence 46) [E78BBD56] (AR v2)
Track 12 accurately ripped (confidence 46) [4E9CCF21] (AR v2)
All tracks accurately ripped
End of status report
==== Log checksum 4C0EBF14A6BCC74F736965DCE79460C882180D37926A891CACD0C341CC5886A2 ====

Лог проверки качества

Лог проверки качества CD1

AUDIOCHECKER v2.0 beta (build 457) - by Dester - opdester@freemail.hu
~~~~~~~~~~~~~~~~~~~~~~~~~~~~~~~~~~
-=== DO NOT EDIT THIS FILE! ===-
Path: ...\CD1
1 -=- Bach - Orchestral Suites - Freiburger Barockorchester (Disc 1).flac -=- CDDA (100%)
205442804

Лог проверки качества CD2

AUDIOCHECKER v2.0 beta (build 457) - by Dester - opdester@freemail.hu
~~~~~~~~~~~~~~~~~~~~~~~~~~~~~~~~~~
-=== DO NOT EDIT THIS FILE! ===-
Path: ...\CD2
1 -=- Bach - Orchestral Suites - Freiburger Barockorchester (Disc 2).flac -=- CDDA (100%)
207867636
Доп. информация: Gramophone Award Winner (2012, Baroque Instrumental)



Показать сообщения:    

Текущее время: 05-Дек 17:30

Часовой пояс: UTC + 3


Вы не можете начинать темы
Вы не можете отвечать на сообщения
Вы не можете редактировать свои сообщения
Вы не можете удалять свои сообщения
Вы не можете голосовать в опросах
Вы не можете прикреплять файлы к сообщениям
Вы не можете скачивать файлы