(Classical) Dvorak: Moravian Duets • Suk: Ten Songs • Smetana: Three Choruses • Eben: About Swallows and Girls - Prague Chamber Choir, Josef Pancik - 1995, FLAC (image+.cue) lossless


Статистика раздачи [Обновить пиров]
Размер:  198 MB   |    Зарегистрирован:  8 месяцев 19 дней   |    Скачан:  0 раз

Полного источника не было: Никогда

Личеров:  18  [  0 KB/s  ]   Подробная статистика пиров
 
   
 
 
 

[Цитировать]

Dvorak: Moravian Duets • Suk: Ten Songs • Smetana: Three Choruses • Eben: About Swallows and Girls - Prague Chamber Choir, Josef Pancik
Жанр: Classical
Страна-производитель диска: UK
Год издания диска: 1995
Издатель (лейбл): Chandos Records
Номер по каталогу: CHAN 9257
Дата записи: 1994
Аудиокодек: FLAC
Тип рипа: image+.cue
Битрейт аудио: lossless
Продолжительность: 59:26
Источник: собственный рип
Наличие сканов в содержимом раздачи: да
Треклист:
Antonín Dvořák (1841–1904)
[1]-[13] Moravian Duets, Op. 32
Josef Suk (1874–1935)
[14]-[23] Ten Songs for female voices & piano four hands, Op. 15
Bedřich Smetana (1824–84)
[24]-[26] Three-part choruses for female voices
Petr Eben (1929-2007)
[27]-[31] Five songs from ‘About Swallows and Girls’
Исполнители:
Marian Lapšanský & Daniel Buranovsky piano
Prague Chamber Choir
Josef Pancik
choirmaster

Лог создания рипа

Exact Audio Copy V1.0 beta 3 from 29. August 2011
EAC extraction logfile from 22. September 2014, 20:28
Prague Chamber Choir, Josef Pancik / Dvorak - Moravian Duets; Suk - Ten Songs
Used drive : HL-DT-STDVDRAM GU70N Adapter: 0 ID: 0
Read mode : Secure
Utilize accurate stream : Yes
Defeat audio cache : Yes
Make use of C2 pointers : No
Read offset correction : 48
Overread into Lead-In and Lead-Out : No
Fill up missing offset samples with silence : Yes
Delete leading and trailing silent blocks : No
Null samples used in CRC calculations : Yes
Used interface : Native Win32 interface for Win NT & 2000
Used output format : User Defined Encoder
Selected bitrate : 128 kBit/s
Quality : High
Add ID3 tag : No
Command line compressor : C:\Program Files (x86)\Exact Audio Copy\Flac\flac.exe
Additional command line options : -V -8 -T "Date=%year%" -T "Genre=%genre%" %source%
TOC of the extracted CD
Track | Start | Length | Start sector | End sector
---------------------------------------------------------
1 | 0:00.00 | 2:29.65 | 0 | 11239
2 | 2:29.65 | 2:22.27 | 11240 | 21916
3 | 4:52.17 | 1:08.18 | 21917 | 27034
4 | 6:00.35 | 1:05.40 | 27035 | 31949
5 | 7:06.00 | 1:17.60 | 31950 | 37784
6 | 8:23.60 | 1:39.65 | 37785 | 45274
7 | 10:03.50 | 2:06.65 | 45275 | 54789
8 | 12:10.40 | 1:45.60 | 54790 | 62724
9 | 13:56.25 | 2:20.30 | 62725 | 73254
10 | 16:16.55 | 3:45.05 | 73255 | 90134
11 | 20:01.60 | 3:06.30 | 90135 | 104114
12 | 23:08.15 | 3:22.20 | 104115 | 119284
13 | 26:30.35 | 3:24.70 | 119285 | 134654
14 | 29:55.30 | 2:32.47 | 134655 | 146101
15 | 32:28.02 | 1:29.45 | 146102 | 152821
16 | 33:57.47 | 1:37.55 | 152822 | 160151
17 | 35:35.27 | 1:42.48 | 160152 | 167849
18 | 37:18.00 | 1:03.12 | 167850 | 172586
19 | 38:21.12 | 1:59.08 | 172587 | 181519
20 | 40:20.20 | 2:25.45 | 181520 | 192439
21 | 42:45.65 | 2:09.45 | 192440 | 202159
22 | 44:55.35 | 1:44.25 | 202160 | 209984
23 | 46:39.60 | 1:19.12 | 209985 | 215921
24 | 47:58.72 | 1:46.00 | 215922 | 223871
25 | 49:44.72 | 1:17.40 | 223872 | 229686
26 | 51:02.37 | 1:52.43 | 229687 | 238129
27 | 52:55.05 | 1:22.32 | 238130 | 244311
28 | 54:17.37 | 0:55.40 | 244312 | 248476
29 | 55:13.02 | 1:10.38 | 248477 | 253764
30 | 56:23.40 | 1:26.35 | 253765 | 260249
31 | 57:50.00 | 1:36.00 | 260250 | 267449
Range status and errors
Selected range
Filename C:\temp\CHAN_09257 - Dvorak - Moravian Duets; Suk - Ten Songs (Chandos)\Dvorak - Moravian Duets; Suk - Ten Songs.wav
Peak level 98.8 %
Extraction speed 2.0 X
Range quality 99.9 %
Test CRC 58A830EA
Copy CRC 58A830EA
Copy OK
No errors occurred
AccurateRip summary
Track 1 accurately ripped (confidence 1) [C46AE065] (AR v2)
Track 2 accurately ripped (confidence 1) [FFDE812A] (AR v2)
Track 3 accurately ripped (confidence 1) [6936AC99] (AR v2)
Track 4 accurately ripped (confidence 1) [CD096590] (AR v2)
Track 5 accurately ripped (confidence 1) [83727A3E] (AR v2)
Track 6 accurately ripped (confidence 1) [E9B12D81] (AR v2)
Track 7 accurately ripped (confidence 1) [C0716DB5] (AR v2)
Track 8 accurately ripped (confidence 1) [63F26AE7] (AR v2)
Track 9 accurately ripped (confidence 1) [31D99AEB] (AR v2)
Track 10 accurately ripped (confidence 1) [1499F5DE] (AR v2)
Track 11 accurately ripped (confidence 1) [5739F0F6] (AR v2)
Track 12 accurately ripped (confidence 1) [52CA0D20] (AR v2)
Track 13 accurately ripped (confidence 1) [F7F9F90B] (AR v2)
Track 14 accurately ripped (confidence 1) [7E30358C] (AR v2)
Track 15 accurately ripped (confidence 1) [D3ECB3CC] (AR v2)
Track 16 accurately ripped (confidence 1) [D88CC1A4] (AR v2)
Track 17 accurately ripped (confidence 1) [AD3048E1] (AR v2)
Track 18 accurately ripped (confidence 1) [D63FC5A8] (AR v2)
Track 19 accurately ripped (confidence 1) [82C8E42D] (AR v2)
Track 20 accurately ripped (confidence 1) [2FA076F6] (AR v2)
Track 21 accurately ripped (confidence 1) [DC0488BA] (AR v2)
Track 22 accurately ripped (confidence 1) [282C6CC4] (AR v2)
Track 23 accurately ripped (confidence 1) [52ECA727] (AR v2)
Track 24 accurately ripped (confidence 1) [89D4EC27] (AR v2)
Track 25 accurately ripped (confidence 1) [A18C39F3] (AR v2)
Track 26 accurately ripped (confidence 1) [AC0C3849] (AR v2)
Track 27 accurately ripped (confidence 1) [111C2636] (AR v2)
Track 28 accurately ripped (confidence 1) [7ACFCF22] (AR v2)
Track 29 accurately ripped (confidence 1) [5CFD3609] (AR v2)
Track 30 accurately ripped (confidence 1) [D30D25E0] (AR v2)
Track 31 accurately ripped (confidence 1) [CCB8240C] (AR v2)
All tracks accurately ripped
End of status report
==== Log checksum 3DECB8577DFF84B448C9F14629903BADBDF8F9B95C65888DB0F4F5C4286F26EF ====
[teatrix.ru].t19992.torrent 
Торрент: Зарегистрирован [ 2016-03-19 00:41 ] · 78F72CE7160FCCB86BDE4BF5CD017B5D413D9DF8

Скачать .torrent

Скачать

32 KB

Статус: проверено
Скачан: 0 раз
Размер: 198 MB
terms.php



Быстрый ответ

Имя:

      
Для отправки сообщений необходимо включить JavaScript
Показать сообщения:    

Текущее время: 07-Дек 21:22

Часовой пояс: UTC + 3


Вы можете начинать темы
Вы можете отвечать на сообщения
Вы не можете редактировать свои сообщения
Вы не можете удалять свои сообщения
Вы не можете голосовать в опросах
Вы не можете прикреплять файлы к сообщениям
Вы можете скачивать файлы