(Classical) J. S. Bach - Cantatas for the complete Liturgical Year, vol.7 (BWV 20, 2, 10) - La Petite Bande, S.Kuijken - 2008, FLAC (image+.cue) lossless


Статистика раздачи [Обновить пиров]
Размер:  306 MB   |    Зарегистрирован:  8 месяцев 18 дней   |    Скачан:  0 раз

Полного источника не было: Никогда

Личеров:  3  [  0 KB/s  ]   Подробная статистика пиров
 
   
 
 
 

[Цитировать]

J. S. Bach - Cantatas for the complete Liturgical Year, vol.7 (BWV 20, 2, 10) - La Petite Bande, S.Kuijken
Жанр: Classical
Страна-производитель диска: Germany
Год издания диска: 2008
Издатель (лейбл): Accent
Номер по каталогу: ACC 25307
Дата записи: 2007
Аудиокодек: FLAC
Тип рипа: image+.cue
Битрейт аудио: lossless
Продолжительность: 64:46
Источник: eMule
Наличие сканов в содержимом раздачи: да
Треклист:
Cantate BWV 20 'O Ewigkeit, du Donnerwort'
PART I
1. Chorale: O Ewigkeit, du Donnerwort
2. Recitative (tenor): Kein Ungluck ist in aller Welt zu finden
3. Aria (tenor): Ewigkeit, du machst mir bange
4. Recitative (bass): Gesetzt, es daur'te der Verdammten Qual
5. Aria (bass): Gott ist gerecht in seinen Werken
6. Aria (alto): O Mensch, errette deine Seele
7. Chorale: Solang ein Gott im Himmel lebt
PART II
8. Aria (bass): Wacht auf, wacht auf, verlornen Schafe
9. Recitative (alto): Verlass, o Mensch, die Wollust dieser Welt
10. Duet (alto, tenor): O Menschenkind, hor auf geschwind
11. Chorale: O Ewigkeit, du Donnerwort
Cantate BWV 2 'Ach Gott, vom Himmel sieh darein'
12. Chorus: Ach Gott, vom Himmel sieh darein
13. Recitative (tenor, bass): Sie lehren eitel falsche List
14. Aria (alto): Tilg, o Gott, die Lehren
15. Recitative (bass): Die Armen sind verstort
16. Aria (tenor): Durchs Feuer wird das Silber rein
17. Chorale: Das wollst du, Gott, bewahren rein
Cantate BWV 10 'Meine Seel erhebt den Herren'
18. Chorale: Meine Seel erhebt den Herren
19. Aria (soprano): Herr, der du stark und machtig bist
20. Recitative (tenor): Des Hochsten Gut und Treu
21. Aria (bass): Gewaltige stosst Gott vom Stuhl
22. Duet and Chorale (alto, tenor): Er denket der Barmherzigkeit
23. Recitative (tenor): Was Gott den Vatern alter Zeiten
24. Chorale: Lob und Preis sei Gott dem Vater
Исполнители:
La Petite Bande
dir. Sigiswald Kuijken
Siri Thornhill (soprano)
Petra Noskaiová (alto)
Christoph Genz (tenor)
Jan Vander Crabben (bass)

Лог создания рипа

Exact Audio Copy V0.99 prebeta 4 from 23. January 2008
EAC extraction logfile from 23. March 2009, 11:22
Bach-S.Kuijken / Cantates BWV 20, 2 & 10 - Vol. 7
Used drive : PLEXTOR DVDR PX-800A Adapter: 0 ID: 0
Read mode : Secure
Utilize accurate stream : Yes
Defeat audio cache : Yes
Make use of C2 pointers : No
Read offset correction : 48
Overread into Lead-In and Lead-Out : No
Fill up missing offset samples with silence : Yes
Delete leading and trailing silent blocks : No
Null samples used in CRC calculations : Yes
Used interface : Native Win32 interface for Win NT & 2000
TOC of the extracted CD
Track | Start | Length | Start sector | End sector
---------------------------------------------------------
1 | 0:00.00 | 4:08.50 | 0 | 18649
2 | 4:08.50 | 0:54.11 | 18650 | 22710
3 | 5:02.61 | 3:25.34 | 22711 | 38119
4 | 8:28.20 | 1:28.46 | 38120 | 44765
5 | 9:56.66 | 4:25.22 | 44766 | 64662
6 | 14:22.13 | 1:43.08 | 64663 | 72395
7 | 16:05.21 | 1:11.04 | 72396 | 77724
8 | 17:16.25 | 2:44.05 | 77725 | 90029
9 | 20:00.30 | 1:24.69 | 90030 | 96398
10 | 21:25.24 | 3:39.05 | 96399 | 112828
11 | 25:04.29 | 1:25.46 | 112829 | 119249
12 | 26:30.00 | 5:24.45 | 119250 | 143594
13 | 31:54.45 | 1:19.04 | 143595 | 149523
14 | 33:13.49 | 3:30.14 | 149524 | 165287
15 | 36:43.63 | 1:44.07 | 165288 | 173094
16 | 38:27.70 | 5:03.22 | 173095 | 195841
17 | 43:31.17 | 1:20.58 | 195842 | 201899
18 | 44:52.00 | 3:41.11 | 201900 | 218485
19 | 48:33.11 | 6:25.31 | 218486 | 247391
20 | 54:58.42 | 1:24.54 | 247392 | 253745
21 | 56:23.21 | 3:04.20 | 253746 | 267565
22 | 59:27.41 | 2:18.62 | 267566 | 277977
23 | 61:46.28 | 2:00.18 | 277978 | 286995
24 | 63:46.46 | 1:00.29 | 286996 | 291524
Range status and errors
Selected range
Filename C:\Bach-Cantatas volume 7-S.Kuijken (Accent)\Bach-S.Kuijken - Cantates BWV 20, 2 & 10 - Vol. 7.wav
Peak level 97.5 %
Range quality 100.0 %
Test CRC 9466F65F
Copy CRC 9466F65F
Copy OK
No errors occurred
AccurateRip summary
Track 1 not present in database
Track 2 not present in database
Track 3 not present in database
Track 4 not present in database
Track 5 not present in database
Track 6 not present in database
Track 7 not present in database
Track 8 not present in database
Track 9 not present in database
Track 10 not present in database
Track 11 not present in database
Track 12 not present in database
Track 13 not present in database
Track 14 not present in database
Track 15 not present in database
Track 16 not present in database
Track 17 not present in database
Track 18 not present in database
Track 19 not present in database
Track 20 not present in database
Track 21 not present in database
Track 22 not present in database
Track 23 not present in database
Track 24 not present in database
None of the tracks are present in the AccurateRip database
End of status report

Содержание индексной карты (.CUE)

REM GENRE "Musique religieuse"
REM DATE 2008
REM DISCID 5E0F2F18
REM COMMENT "ExactAudioCopy v0.99pb4"
PERFORMER "La Petite Bande, S. Kuijken"
TITLE "Cantates BWV 20, 2 & 10 - Vol. 7"
FILE "Bach-S.Kuijken - Cantates BWV 20, 2 & 10 - Vol. 7.flac" WAVE
TRACK 01 AUDIO
TITLE "(Cantate BWV 20 'O Ewigkeit, du Donnerwort') PART I - 1. Chorale: O Ewigkeit, du Donnerwort"
PERFORMER "La Petite Bande, S. Kuijken"
FLAGS DCP
INDEX 01 00:00:00
TRACK 02 AUDIO
TITLE "2. Recitative (tenor): Kein Ungluck ist in aller Welt zu finden"
PERFORMER "La Petite Bande, S. Kuijken"
FLAGS DCP
INDEX 01 04:08:50
TRACK 03 AUDIO
TITLE "3. Aria (tenor): Ewigkeit, du machst mir bange"
PERFORMER "La Petite Bande, S. Kuijken"
FLAGS DCP
INDEX 01 05:02:61
TRACK 04 AUDIO
TITLE "4. Recitative (bass): Gesetzt, es daur'te der Verdammten Qual"
PERFORMER "La Petite Bande, S. Kuijken"
FLAGS DCP
INDEX 01 08:28:20
TRACK 05 AUDIO
TITLE "5. Aria (bass): Gott ist gerecht in seinen Werken"
PERFORMER "La Petite Bande, S. Kuijken"
FLAGS DCP
INDEX 01 09:56:66
TRACK 06 AUDIO
TITLE "6. Aria (alto): O Mensch, errette deine Seele"
PERFORMER "La Petite Bande, S. Kuijken"
FLAGS DCP
INDEX 01 14:22:13
TRACK 07 AUDIO
TITLE "7. Chorale: Solang ein Gott im Himmel lebt"
PERFORMER "La Petite Bande, S. Kuijken"
FLAGS DCP
INDEX 01 16:05:21
TRACK 08 AUDIO
TITLE "PART II - 8. Aria (bass): Wacht auf, wacht auf, verlornen Schafe"
PERFORMER "La Petite Bande, S. Kuijken"
FLAGS DCP
INDEX 01 17:16:25
TRACK 09 AUDIO
TITLE "9. Recitative (alto): Verlass, o Mensch, die Wollust dieser Welt"
PERFORMER "La Petite Bande, S. Kuijken"
FLAGS DCP
INDEX 01 20:00:30
TRACK 10 AUDIO
TITLE "10. Duet (alto, tenor): O Menschenkind, hor auf geschwind"
PERFORMER "La Petite Bande, S. Kuijken"
FLAGS DCP
INDEX 01 21:25:24
TRACK 11 AUDIO
TITLE "11. Chorale: O Ewigkeit, du Donnerwort"
PERFORMER "La Petite Bande, S. Kuijken"
FLAGS DCP
INDEX 01 25:04:29
TRACK 12 AUDIO
TITLE "(Cantate BWV 2 'Ach Gott, vom Himmel sieh darein') 1. Chorus: Ach Gott, vom Himmel sieh darein"
PERFORMER "La Petite Bande, S. Kuijken"
FLAGS DCP
INDEX 00 26:19:22
INDEX 01 26:30:00
TRACK 13 AUDIO
TITLE "2. Recitative (tenor, bass): Sie lehren eitel falsche List"
PERFORMER "La Petite Bande, S. Kuijken"
FLAGS DCP
INDEX 01 31:54:45
TRACK 14 AUDIO
TITLE "3. Aria (alto): Tilg, o Gott, die Lehren"
PERFORMER "La Petite Bande, S. Kuijken"
FLAGS DCP
INDEX 01 33:13:49
TRACK 15 AUDIO
TITLE "4. Recitative (bass): Die Armen sind verstort"
PERFORMER "La Petite Bande, S. Kuijken"
FLAGS DCP
INDEX 01 36:43:63
TRACK 16 AUDIO
TITLE "5. Aria (tenor): Durchs Feuer wird das Silber rein"
PERFORMER "La Petite Bande, S. Kuijken"
FLAGS DCP
INDEX 01 38:27:70
TRACK 17 AUDIO
TITLE "6. Chorale: Das wollst du, Gott, bewahren rein"
PERFORMER "La Petite Bande, S. Kuijken"
FLAGS DCP
INDEX 01 43:31:17
TRACK 18 AUDIO
TITLE "(Cantate BWV 10 'Meine Seel erhebt den Herren') 1. Chorale: Meine Seel erhebt den Herren"
PERFORMER "La Petite Bande, S. Kuijken"
FLAGS DCP
INDEX 00 44:41:65
INDEX 01 44:52:00
TRACK 19 AUDIO
TITLE "2. Aria (soprano): Herr, der du stark und machtig bist"
PERFORMER "La Petite Bande, S. Kuijken"
FLAGS DCP
INDEX 01 48:33:11
TRACK 20 AUDIO
TITLE "3. Recitative (tenor): Des Hochsten Gut und Treu"
PERFORMER "La Petite Bande, S. Kuijken"
FLAGS DCP
INDEX 01 54:58:42
TRACK 21 AUDIO
TITLE "4. Aria (bass): Gewaltige stosst Gott vom Stuhl"
PERFORMER "La Petite Bande, S. Kuijken"
FLAGS DCP
INDEX 01 56:23:21
TRACK 22 AUDIO
TITLE "5. Duet and Chorale (alto, tenor): Er denket der Barmherzigkeit"
PERFORMER "La Petite Bande, S. Kuijken"
FLAGS DCP
INDEX 01 59:27:41
TRACK 23 AUDIO
TITLE "6. Recitative (tenor): Was Gott den Vatern alter Zeiten"
PERFORMER "La Petite Bande, S. Kuijken"
FLAGS DCP
INDEX 01 61:46:28
TRACK 24 AUDIO
TITLE "7. Chorale: Lob und Preis sei Gott dem Vater"
PERFORMER "La Petite Bande, S. Kuijken"
FLAGS DCP
INDEX 01 63:46:46
[teatrix.ru].t19993.torrent 
Торрент: Зарегистрирован [ 2016-03-19 00:32 ] · CDF17FD03F41C355857E5E72A8C55E1EFB0E7964

Скачать .torrent

Скачать

14 KB

Статус: проверено
Скачан: 0 раз
Размер: 306 MB
terms.php



Быстрый ответ

Имя:

      
Для отправки сообщений необходимо включить JavaScript
Показать сообщения:    

Текущее время: 06-Дек 17:05

Часовой пояс: UTC + 3


Вы можете начинать темы
Вы можете отвечать на сообщения
Вы не можете редактировать свои сообщения
Вы не можете удалять свои сообщения
Вы не можете голосовать в опросах
Вы не можете прикреплять файлы к сообщениям
Вы можете скачивать файлы