(Classical) [LP] [24/48] L.Beethoven \ Л. Бетховен - Symphony No.5 (Moscow Radio Great Symphony Orchestra - Conductor Konstantin Ivanov) - 1980, FLAC (tracks+.cue)


Статистика раздачи [Обновить пиров]
Размер:  319 MB   |    Зарегистрирован:  8 месяцев 15 дней   |    Скачан:  0 раз

Полного источника не было: Никогда

Личеров:  12  [  0 KB/s  ]   Подробная статистика пиров
 
   
 
 
 

[Цитировать]

L.Beethoven - Symphony No.5 (Moscow Radio Great Symphony Orchestra - Conductor Konstantin Ivanov)
Жанр: Classical
Носитель: LP
Год выпуска: 1980
Лейбл: Melodya (VSG)
Страна-производитель: USSR
Аудио кодек: FLAC
Тип рипа: tracks+.cue
Формат записи: 32/192
Формат раздачи: 24/48
Продолжительность: 30.25 min
Треклист:
01. Allegro con brio
02. Andante con moto
03. Allegro
04. Allegro
Источник оцифровки: автором раздачи
Код класса состояния винила: NM
Устройство воспроизведения: Электроника ЭП 017С
Головка звукоснимателя: Audio-Technica AT95
Предварительный усилитель: Бриг-001
АЦП: VIA HD audio device
Программа-оцифровщик: Izotope RX 4 Advanced
Обработка: Manual

Спектр+АЧХ+Уровень записи

DR=12

foobar2000 1.1.10 / Dynamic Range Meter 1.1.1
log date: 2015-01-04 20:55:52
--------------------------------------------------------------------------------
Analyzed: Moscow Radio Great Symphony Orchestra / Symphony No.5
--------------------------------------------------------------------------------
DR Peak RMS Duration Track
--------------------------------------------------------------------------------
DR12 -4.09 dB -19.76 dB 7:43 ?-Allegro con brio
DR12 -3.36 dB -22.32 dB 9:09 ?-Andante con moto
DR11 -3.86 dB -19.56 dB 3:46 ?-Allegro
DR11 -2.18 dB -17.88 dB 9:46 ?-Allegro
--------------------------------------------------------------------------------
Number of tracks: 4
Official DR value: DR12
Samplerate: 48000 Hz
Channels: 2
Bits per sample: 24
Bitrate: 1452 kbps
Codec: FLAC
================================================================================

Back & Disc

[teatrix.ru].t19995.torrent 
Торрент: Зарегистрирован [ 2016-03-19 00:42 ] · 6C767756B64436110EBF6E4A905B307099FF0D54

Скачать .torrent

Скачать

14 KB

Статус: проверено
Скачан: 0 раз
Размер: 319 MB
terms.php



Быстрый ответ

Имя:

      
Для отправки сообщений необходимо включить JavaScript
Показать сообщения:    

Текущее время: 03-Дек 18:42

Часовой пояс: UTC + 3


Вы можете начинать темы
Вы можете отвечать на сообщения
Вы не можете редактировать свои сообщения
Вы не можете удалять свои сообщения
Вы не можете голосовать в опросах
Вы не можете прикреплять файлы к сообщениям
Вы можете скачивать файлы