(Oratorio) Lortzing - Die Himmelfahrt Jesu Christi (Pfeffer, Fassbender, Schneider, Hilz, Stiefermann - WDR Rundfunkchor & Orchester Koln, Froschauer) - 2003, APE (image+.cue) lossless


Статистика раздачи [Обновить пиров]
Размер:  214 MB   |    Зарегистрирован:  8 месяцев 16 дней   |    Скачан:  0 раз

Полного источника не было: Никогда

Личеров:  15  [  0 KB/s  ]   Подробная статистика пиров
 
   
 
 
 

[Цитировать]

Albert Lortzing - Die Himmelfahrt Jesu Christi
Жанр: Oratorio
Страна-производитель диска: Germany
Год издания диска: 2003
Издатель (лейбл): CPO
Номер по каталогу: 999837-2
Дата записи: 1998
Аудиокодек: APE
Тип рипа: image+.cue
Битрейт аудио: lossless
Продолжительность: 56'35
Источник: собственный рип
Наличие сканов в содержимом раздачи: да
Треклист:
1. Part 1. Chorus of the Angels, Heilig ist unser Gott
2. Part 1. Recitative, Gekommen sind wir an des Ölbergs Fuß
3. Part 1. Recitative & Aria, Vernehmt mich alle
4. Part 1. Recitative & Quartet, Im Anfang war das Wort
5. Part 1. Recitative & Duet, Es faßt mein Geist die Wunder alle nicht
6. Part 1. Recitative & Aria, Zwar konnte nicht die Macht
7. Part 1. Chorus of the Angels, Gewalt und Lob und Preis und Stärke
8. Part 2. Recitative & Aria, O Brüder Heil und Frieden
9. Part 2. Chorus of the Disciples, Ach, was ist das, was er spricht?
10. Part 2. Recitative & Aria, Vollendet, O mein Vater
11. Part 2. Terzett & Chorus of the Disciples, O was erhebt vom Staube
12. Part 2. Recitative, Ach, daß du nicht in dieser heil'gen Stunde
13. Part 2. Chorus of the Angels & Quartet, O selig sie, die Gott berufen
Исполнители:
Albert Lortzing - Die Himmelfahrt Jesu Christi
Oratorio for soloists, chorus & orchestra
Gabriel - Anneli Pfeffer (Soprano)
Eloa - Hedwig Fassbender (Alto)
Johannes - Christian Hilz (Baritone),
Petrus - Kay Stiefermann (Bass)
Christus - Bernhard Schneider (Tenor)
WDR Rundfunkchor Köln
WDR Rundfunkorchester Köln
Conductor: Helmuth Froschauer

Лог создания рипа

Exact Audio Copy V1.0 beta 3 from 29. August 2011
EAC extraction logfile from 27. July 2013, 13:33
Lorzing / Die Himmelfahrt Jesu Christi, Froschauer, 1998
Used drive : TSSTcorpCDDVDW SE-208AB Adapter: 1 ID: 0
Read mode : Secure
Utilize accurate stream : Yes
Defeat audio cache : Yes
Make use of C2 pointers : No
Read offset correction : 6
Overread into Lead-In and Lead-Out : No
Fill up missing offset samples with silence : Yes
Delete leading and trailing silent blocks : No
Null samples used in CRC calculations : Yes
Used interface : Native Win32 interface for Win NT & 2000
Used output format : Monkey's Audio Lossless Encoder
Selected bitrate : High Lossless Compression
Quality : High
Add ID3 tag : Yes
Command line compressor : K:\Program Files (x86)\Exact Audio Copy\Monkeys Audio\Monkey's Audio\MAC.exe
Additional command line options : -6 -V -T "ARTIST=%artist%" -T "TITLE=%title%" -T "ALBUM=%albumtitle%" -T "DATE=%year%" -T "TRACKNUMBER=%tracknr%" -T "GENRE=%genre%" -T "COMMENT=%comment%" -T "BAND=%albuminterpret%" -T "ALBUMARTIST=%albuminterpret%" -T "COMPOSER=%composer%" %haslyrics%--tag-from-file=LYRICS="%lyricsfile%"%haslyrics% -T "DISCNUMBER=%cdnumber%" -T "TOTALDISCS=%totalcds%" -T "TOTALTRACKS=%numtracks%" %hascover%--picture="%coverfile%"%hascover% %source% -o %dest%
TOC of the extracted CD
Track | Start | Length | Start sector | End sector
---------------------------------------------------------
1 | 0:00.00 | 3:16.72 | 0 | 14771
2 | 3:16.72 | 1:35.50 | 14772 | 21946
3 | 4:52.47 | 3:59.48 | 21947 | 39919
4 | 8:52.20 | 4:37.27 | 39920 | 60721
5 | 13:29.47 | 5:50.45 | 60722 | 87016
6 | 19:20.17 | 5:49.40 | 87017 | 113231
7 | 25:09.57 | 5:35.18 | 113232 | 138374
8 | 30:45.00 | 5:57.22 | 138375 | 165171
9 | 36:42.22 | 3:07.48 | 165172 | 179244
10 | 39:49.70 | 4:24.35 | 179245 | 199079
11 | 44:14.30 | 6:09.60 | 199080 | 226814
12 | 50:24.15 | 0:46.47 | 226815 | 230311
13 | 51:10.62 | 5:22.13 | 230312 | 254474
Range status and errors
Selected range
Filename I:\Foobar-EAC\Lorzing - Die Himmelfahrt Jesu Christi, Froschauer, 1998.wav
Peak level 98.3 %
Extraction speed 1.9 X
Range quality 100.0 %
Test CRC 804FD77A
Copy CRC 804FD77A
Copy OK
No errors occurred
AccurateRip summary
Track 1 not present in database
Track 2 not present in database
Track 3 not present in database
Track 4 not present in database
Track 5 not present in database
Track 6 not present in database
Track 7 not present in database
Track 8 not present in database
Track 9 not present in database
Track 10 not present in database
Track 11 not present in database
Track 12 not present in database
Track 13 not present in database
None of the tracks are present in the AccurateRip database
End of status report
==== Log checksum D096081F41386799F0B5F035D92B2BE91854BF60CE083C8EF68C497D50B6C93A ====

Содержание индексной карты (.CUE)

REM GENRE Oratorio
REM DATE 1998
REM DISCID A00D410D
REM COMMENT "ExactAudioCopy v1.0b3"
PERFORMER "Lorzing"
TITLE "Die Himmelfahrt Jesu Christi, Froschauer, 1998"
FILE "Lorzing - Die Himmelfahrt Jesu Christi, Froschauer, 1998.ape" WAVE
TRACK 01 AUDIO
TITLE "01 - Chorus - Heilig ist unser Gott"
PERFORMER "Lorzing"
INDEX 01 00:00:00
TRACK 02 AUDIO
TITLE "02 - Recitative - Gekommen sind wir an des Ölberg fuss"
PERFORMER "Lorzing"
INDEX 01 03:16:72
TRACK 03 AUDIO
TITLE "03 - Recitative and aria - Vernehmt mich alle"
PERFORMER "Lorzing"
INDEX 01 04:52:47
TRACK 04 AUDIO
TITLE "04 - Recitative and quartet - Im anfang war das Wort"
PERFORMER "Lorzing"
INDEX 01 08:52:20
TRACK 05 AUDIO
TITLE "05 - Recitative and duet - Es fasst mein Geist die Wunder nicht alle"
PERFORMER "Lorzing"
INDEX 01 13:29:47
TRACK 06 AUDIO
TITLE "06 - Recitative and aria - Zwar konnte nicht die Macht"
PERFORMER "Lorzing"
INDEX 01 19:20:17
TRACK 07 AUDIO
TITLE "07 - Chorus - Gewalt und Job und Preis und Stärke"
PERFORMER "Lorzing"
INDEX 01 25:09:57
TRACK 08 AUDIO
TITLE "08 - Recitative and aria - O Brüder, Heil und Frieden"
PERFORMER "Lorzing"
INDEX 01 30:45:00
TRACK 09 AUDIO
TITLE "09 - Chorus - Ach, was ist das, was es spricht?"
PERFORMER "Lorzing"
INDEX 01 36:42:22
TRACK 10 AUDIO
TITLE "10 - Recitative and aria - Vollendet, O mein Vater"
PERFORMER "Lorzing"
INDEX 01 39:49:70
TRACK 11 AUDIO
TITLE "11 - Terzett and chorus - O was erhebt vom Staube"
PERFORMER "Lorzing"
INDEX 01 44:14:30
TRACK 12 AUDIO
TITLE "12 - Recitative - Ach, dass du nicht in dieser heilgen Stunde"
PERFORMER "Lorzing"
INDEX 01 50:24:15
TRACK 13 AUDIO
TITLE "13 - Chorus and quartet - O selig sie die Gott berufen"
PERFORMER "Lorzing"
INDEX 01 51:10:62
[teatrix.ru].t19998.torrent 
Торрент: Зарегистрирован [ 2016-03-19 00:42 ] · AC37597885BF89CCAE963BAE13900E44AF9F3672

Скачать .torrent

Скачать

18 KB

Статус: проверено
Скачан: 0 раз
Размер: 214 MB
terms.php



Быстрый ответ

Имя:

      
Для отправки сообщений необходимо включить JavaScript
Показать сообщения:    

Текущее время: 04-Дек 04:59

Часовой пояс: UTC + 3


Вы можете начинать темы
Вы можете отвечать на сообщения
Вы не можете редактировать свои сообщения
Вы не можете удалять свои сообщения
Вы не можете голосовать в опросах
Вы не можете прикреплять файлы к сообщениям
Вы можете скачивать файлы