(Classical) Franco Fagioli - Arias for Caffarelli (Riccardo Minasi, Il Pomo D’Oro; Hasse, Vinci, Leo, Porpora, Pergolesi, Leo, Cafaro, Sarro, Manna) - 2013, FLAC (tracks+.cue) lossless


 

[Цитировать]

Franco Fagioli - Arias for Caffarelli (Riccardo Minasi, Il Pomo D’Oro; Hasse, Vinci, Leo, Porpora, Pergolesi, Leo, Cafaro, Sarro, Manna)
Жанр: Classical
Год издания: 2013
Издатель (лейбл): Naïve
Номер по каталогу: V5333
Аудиокодек: FLAC
Тип рипа: tracks+.cue
Битрейт аудио: lossless
Продолжительность: 78:34
Источник: скачано из сети
Наличие сканов в содержимом раздачи: да
Треклист:
01. Hasse- Fra l’orror della tempesta (Siroe) (05:06)
02. Ebbi da te la vita (Siroe) (07:27)
03. Vinci- In braccio a mille furie (Semiramide riconosciuta) (05:10)
04. Leo- Mesero pargoletto (Demofoonte) (07:39)
05. Porpora- Passaggier che sulla sponda (Semiramide riconosciuta) (06:23)
06. Pergolesi- Lieto cosi talvolta (Adriano in Siria) (11:13)
07. Leo- Sperai vicino il lido (Demofoonte) (06:11)
08. Cafaro- Rendimi piu sereno (L’Ipermestra) (08:03)
09. Sarro- Un cor che ben ama (Valdemaro) (04:34)
10. Manna- Cara ti lascio, addio (Lucio Vero ossia il vologeso) (08:44)
11. Odo il suono di tromba guerriera (Lucio Papiro dittatore) (08:10)
Исполнители:
Franco Fagioli, countertenor
Il Pomo D’Oro
Riccardo Minasi, conductor

LOG EAC CD:

Exact Audio Copy V1.0 beta 3 from 29. August 2011
EAC extraction logfile from 27. January 2014, 20:12
Franco Fagioli / Arias For Caffarelli
Used drive : PLEXTOR DVDR PX-860A Adapter: 0 ID: 0
Read mode : Secure
Utilize accurate stream : Yes
Defeat audio cache : Yes
Make use of C2 pointers : No
Read offset correction : 96
Overread into Lead-In and Lead-Out : No
Fill up missing offset samples with silence : Yes
Delete leading and trailing silent blocks : No
Null samples used in CRC calculations : Yes
Used interface : Native Win32 interface for Win NT & 2000
Gap handling : Appended to previous track
Used output format : User Defined Encoder
Selected bitrate : 1024 kBit/s
Quality : High
Add ID3 tag : No
Command line compressor : C:\Program Files\Exact Audio Copy\Flac\flac.exe
Additional command line options : -8 -V -T "ARTIST=%artist%" -T "TITLE=%title%" -T "ALBUM=%albumtitle%" -T "DATE=%year%" -T "TRACKNUMBER=%tracknr%" -T "TOTALTRACKS=%numtracks%" -T "GENRE=%genre%" -T "ALBUMARTIST=%albumartist%" -T "ALBUM ARTIST=%albumartist%" -T "COMMENT=EAC Secure Mode, Test & Copy, AccurateRip, FLAC -8" %source%
TOC of the extracted CD
Track | Start | Length | Start sector | End sector
---------------------------------------------------------
1 | 0:00.00 | 5:05.30 | 0 | 22904
2 | 5:05.30 | 7:26.25 | 22905 | 56379
3 | 12:31.55 | 5:09.34 | 56380 | 79588
4 | 17:41.14 | 7:38.35 | 79589 | 113973
5 | 25:19.49 | 6:22.12 | 113974 | 142635
6 | 31:41.61 | 11:12.01 | 142636 | 193036
7 | 42:53.62 | 6:11.02 | 193037 | 220863
8 | 49:04.64 | 8:02.51 | 220864 | 257064
9 | 57:07.40 | 4:34.05 | 257065 | 277619
10 | 61:41.45 | 8:43.19 | 277620 | 316863
11 | 70:24.64 | 8:09.18 | 316864 | 353556
Track 1
Filename O:\DL\Franco Fagioli - Arias For Caffarelli (2013) [FLAC]\01 - Hasse Siroe Fra l'orror della tempesta.wav
Pre-gap length 0:00:02.00
Peak level 96.4 %
Extraction speed 4.6 X
Track quality 100.0 %
Test CRC 63B56706
Copy CRC 63B56706
Accurately ripped (confidence 3) [90AB1906] (AR v2)
Copy OK
Track 2
Filename O:\DL\Franco Fagioli - Arias For Caffarelli (2013) [FLAC]\02 - Hasse Siroe Ebbi da te la vita.wav
Peak level 86.2 %
Extraction speed 5.4 X
Track quality 100.0 %
Test CRC 35A9CFF2
Copy CRC 35A9CFF2
Accurately ripped (confidence 3) [A9C73617] (AR v2)
Copy OK
Track 3
Filename O:\DL\Franco Fagioli - Arias For Caffarelli (2013) [FLAC]\03 - Vinci Semiramide Riconosciuta In braccio a mille furie.wav
Peak level 98.2 %
Extraction speed 5.8 X
Track quality 100.0 %
Test CRC 624939F4
Copy CRC 624939F4
Accurately ripped (confidence 3) [2CA5B1A0] (AR v2)
Copy OK
Track 4
Filename O:\DL\Franco Fagioli - Arias For Caffarelli (2013) [FLAC]\04 - Leo Demofoonte Misero pargoletto.wav
Peak level 83.9 %
Extraction speed 6.0 X
Track quality 99.9 %
Test CRC 697D5B85
Copy CRC 697D5B85
Accurately ripped (confidence 3) [5C4BF322] (AR v2)
Copy OK
Track 5
Filename O:\DL\Franco Fagioli - Arias For Caffarelli (2013) [FLAC]\05 - Porpora Semiramide Riconosciuta Passaggier che sulla sponda.wav
Peak level 95.5 %
Extraction speed 6.8 X
Track quality 100.0 %
Test CRC 4A53970E
Copy CRC 4A53970E
Accurately ripped (confidence 3) [5A2BB256] (AR v2)
Copy OK
Track 6
Filename O:\DL\Franco Fagioli - Arias For Caffarelli (2013) [FLAC]\06 - Pergolesi Adriano in Siria Lieto cosi talvolta.wav
Peak level 91.2 %
Extraction speed 7.6 X
Track quality 100.0 %
Test CRC 07AC5483
Copy CRC 07AC5483
Accurately ripped (confidence 3) [B1EBB8F1] (AR v2)
Copy OK
Track 7
Filename O:\DL\Franco Fagioli - Arias For Caffarelli (2013) [FLAC]\07 - Leo Demofoonte Sperai vicino il lido.wav
Peak level 92.1 %
Extraction speed 7.8 X
Track quality 100.0 %
Test CRC 92BDDA2A
Copy CRC 92BDDA2A
Accurately ripped (confidence 3) [CDAFA1ED] (AR v2)
Copy OK
Track 8
Filename O:\DL\Franco Fagioli - Arias For Caffarelli (2013) [FLAC]\08 - Cafaro Ipermestra Rendimi piu sereno.wav
Peak level 95.5 %
Extraction speed 8.4 X
Track quality 100.0 %
Test CRC 2B3FD91C
Copy CRC 2B3FD91C
Accurately ripped (confidence 3) [174A96F6] (AR v2)
Copy OK
Track 9
Filename O:\DL\Franco Fagioli - Arias For Caffarelli (2013) [FLAC]\09 - Sarro Valdemaro Un cor che ben ama.wav
Peak level 95.2 %
Extraction speed 8.2 X
Track quality 100.0 %
Test CRC 650344CB
Copy CRC 650344CB
Accurately ripped (confidence 3) [B3D90468] (AR v2)
Copy OK
Track 10
Filename O:\DL\Franco Fagioli - Arias For Caffarelli (2013) [FLAC]\10 - Manna Lucio Vero Cara ti lascio, Addio.wav
Peak level 79.6 %
Extraction speed 8.5 X
Track quality 99.9 %
Test CRC 969BDC7E
Copy CRC 969BDC7E
Accurately ripped (confidence 3) [7CEFC2F7] (AR v2)
Copy OK
Track 11
Filename O:\DL\Franco Fagioli - Arias For Caffarelli (2013) [FLAC]\11 - Manna Lucio Papirio Odo il suono di tromba guerriera.wav
Peak level 95.9 %
Extraction speed 9.3 X
Track quality 100.0 %
Test CRC 603D3FAE
Copy CRC 603D3FAE
Accurately ripped (confidence 3) [4932F16C] (AR v2)
Copy OK
All tracks accurately ripped
No errors occurred
End of status report
---- CUETools DB Plugin V2.1.3
[CTDB TOCID: FLisUTVb3BhKPu8nCAcuEHxKWcU-] found, Submit result: FLisUTVb3BhKPu8nCAcuEHxKWcU- has been confirmed
[3c5d96d2] (4/4) Accurately ripped
==== Log checksum 424ACD1EDE941FD90CE9F79CDAF5F23F66F53D28D58EDB4BDB9EC3CDAC3273DD ====

LOG (.CUE):

REM GENRE Classical
REM DATE 2013
REM DISCID 90126A0B
REM COMMENT "ExactAudioCopy v1.0b3"
PERFORMER "Franco Fagioli"
TITLE "Arias For Caffarelli"
FILE "01 - Hasse Siroe Fra l'orror della tempesta.wav" WAVE
TRACK 01 AUDIO
TITLE "Hasse Siroe Fra l'orror della tempesta"
PERFORMER "Franco Fagioli"
INDEX 01 00:00:00
FILE "02 - Hasse Siroe Ebbi da te la vita.wav" WAVE
TRACK 02 AUDIO
TITLE "Hasse Siroe Ebbi da te la vita"
PERFORMER "Franco Fagioli"
INDEX 01 00:00:00
FILE "03 - Vinci Semiramide Riconosciuta In braccio a mille furie.wav" WAVE
TRACK 03 AUDIO
TITLE "Vinci Semiramide Riconosciuta In braccio a mille furie"
PERFORMER "Franco Fagioli"
INDEX 01 00:00:00
FILE "04 - Leo Demofoonte Misero pargoletto.wav" WAVE
TRACK 04 AUDIO
TITLE "Leo Demofoonte Misero pargoletto"
PERFORMER "Franco Fagioli"
INDEX 01 00:00:00
FILE "05 - Porpora Semiramide Riconosciuta Passaggier che sulla sponda.wav" WAVE
TRACK 05 AUDIO
TITLE "Porpora Semiramide Riconosciuta Passaggier che sulla sponda"
PERFORMER "Franco Fagioli"
INDEX 01 00:00:00
FILE "06 - Pergolesi Adriano in Siria Lieto cosi talvolta.wav" WAVE
TRACK 06 AUDIO
TITLE "Pergolesi Adriano in Siria Lieto cosм talvolta"
PERFORMER "Franco Fagioli"
INDEX 01 00:00:00
FILE "07 - Leo Demofoonte Sperai vicino il lido.wav" WAVE
TRACK 07 AUDIO
TITLE "Leo Demofoonte Sperai vicino il lido"
PERFORMER "Franco Fagioli"
INDEX 01 00:00:00
FILE "08 - Cafaro Ipermestra Rendimi piu sereno.wav" WAVE
TRACK 08 AUDIO
TITLE "Cafaro Ipermestra Rendimi piu sereno"
PERFORMER "Franco Fagioli"
INDEX 01 00:00:00
FILE "09 - Sarro Valdemaro Un cor che ben ama.wav" WAVE
TRACK 09 AUDIO
TITLE "Sarro Valdemaro Un cor che ben ama"
PERFORMER "Franco Fagioli"
INDEX 01 00:00:00
FILE "10 - Manna Lucio Vero Cara ti lascio, Addio.wav" WAVE
TRACK 10 AUDIO
TITLE "Manna Lucio Vero Cara ti lascio, Addio"
PERFORMER "Franco Fagioli"
INDEX 01 00:00:00
FILE "11 - Manna Lucio Papirio Odo il suono di tromba guerriera.wav" WAVE
TRACK 11 AUDIO
TITLE "Manna Lucio Papirio Odo il suono di tromba guerriera"
PERFORMER "Franco Fagioli"
INDEX 01 00:00:00
-mp3-Доп. информация:
Фра́нко Фаджо́ли — знаменитый оперный певец, контратенор, меццосопранист, родился в 1981 году в Сан-Мигель-де-Тукумане (Аргентина). Обучался игре на фортепиано в Высшем музыкальном институте Тукуманского национального университета в своём родном городе. Позже занимался вокалом в Институте искусств Театра Колон в Буэнос-Айресе (Аргентина). В 1997 году Фаджоли основал Хор имени святого Мартина де Порреса с целью приобщения к музыке местной молодёжи. Следуя совету своего педагога по вокалу, Аннализы Сковманд (а также Челины Лис и Риккардо Йоста), Франко решил петь в контртеноровой тесситуре.
В 2003 году Фаджоли одержал победу на престижном конкурсе «Новые голоса», который раз в два года проводит фонд Бертельсманна, что послужило началом его международной карьеры. С тех пор он активно выступает в Европе, Южной Америке и США, участвуя в оперных постановках и давая сольные концерты.
Фаджоли сотрудничал с такими дирижёрами как Ринальдо Алессандрини, Алан Кёртис, Диего Фазолис, Габриэль Гарридо, Николас Арнокур, Михаэль Хофштеттер, Рене Якобс, Конрад Юнгхенель, Хосе Мануэль Кинтана, Марк Минковски, Риккардо Мути и Кристоф Руссе. Выступал на ведущих концертных площадках мира.
Особый тембр и широчайший голосовой диапазон позволяют Фаджоли исполнять как альтовые, так и сопрановые партии. В репертуаре певца, в основном, музыка эпохи Барокко, но также и сочинения современных композиторов.



Показать сообщения:    

Текущее время: 05-Дек 11:32

Часовой пояс: UTC + 3


Вы не можете начинать темы
Вы не можете отвечать на сообщения
Вы не можете редактировать свои сообщения
Вы не можете удалять свои сообщения
Вы не можете голосовать в опросах
Вы не можете прикреплять файлы к сообщениям
Вы не можете скачивать файлы