Морфин. История Марка Сэндмана / Cure for Pain: The Mark Sandman Story (Роберт Брэлвер / Robert Bralver) [2011, биография, DVDRip]


Статистика раздачи [Обновить пиров]
Размер:  1.45 GB   |    Зарегистрирован:  10 месяцев 5 дней   |    Скачан:  2 раза

Полного источника не было: 1 месяц 1 день

Личеров:  12  [  0 KB/s  ]   Подробная статистика пиров
 
   
 
 
 

[Цитировать]

Морфин. История Марка Сэндмана / Cure for Pain: The Mark Sandman Story
Дата/Год выпуска: 2011
Страна: США
Жанр: Биография
Продолжительность: 1:25:44
Перевод: Субтитры
Доп. инфо о переводе: voidgraph
Русские субтитры: есть
Формат субтитров: softsub (SRT)
Режиссер: Роберт Брэлвер / Robert Bralver
Описание: Фильм изучает жизнь и творчество Марка Сэндмана, покойного фронтмэна бостонской “low rock” группы Morphine. Родившись в городе Ньютон в штате Массачусетс, повзрослев в путешествиях по Америке и всему миру, Сэндман оставил неизгладимый след как один из самых выдающихся музыкантов своего поколения. Вспоминая «уникальное знойное звучание» его музыки, фильм показывает историю этого культового и противоречивого певца, автора и музыканта-новатора.
Сэмпл: https://yadi.sk/i/781dL1CLdoVos
качество: DVDRip
формат: AVI
Видео: DivX 5 720x392 29.97fps 2190kbps
Аудио: Dolby AC3 48000Hz stereo 224kbps

Media Info

Общее
Формат : AVI
Формат/Информация : Audio Video Interleave
Размер файла : 1,45 Гбайт
Продолжительность : 1 ч. 25 м.
Общий поток : 2426 Кбит/сек
Программа кодирования : VirtualDubMod 1.5.10.2 (build 2540/release)
Библиотека кодирования : VirtualDubMod build 2540/release
Видео
Идентификатор : 0
Формат : MPEG-4 Visual
Профиль формата : Advanced Simple@L5
Параметр BVOP формата : Нет
Параметр QPel формата : Нет
Параметр GMC формата : Без точки перехода
Параметр матрицы формата : Default (MPEG)
Идентификатор кодека : DX50
Идентификатор кодека/Подсказка : DivX 5
Продолжительность : 1 ч. 25 м.
Битрейт : 2191 Кбит/сек
Ширина : 720 пикселей
Высота : 392 пикселя
Соотношение сторон : 1,85:1
Частота кадров : 29,970 кадров/сек
Цветовое пространство : YUV
Субдискретизация насыщенности : 4:2:0
Битовая глубина : 8 бит
Тип развёртки : Прогрессивная
Метод сжатия : С потерями
Бит/(Пиксели*Кадры) : 0.259
Размер потока : 1,31 Гбайт (90%)
Библиотека кодирования : XviD 1.2.0.dev47 (UTC 2006-11-01)
Аудио
Идентификатор : 1
Формат : AC-3
Формат/Информация : Audio Coding 3
Расширение режима : CM (complete main)
Параметр Endianness формата : Big
Идентификатор кодека : 2000
Продолжительность : 1 ч. 25 м.
Вид битрейта : Постоянный
Битрейт : 224 Кбит/сек
Каналы : 2 канала
Расположение каналов : Front: L R
Частота : 48,0 КГц
Битовая глубина : 16 бит
Метод сжатия : С потерями
Размер потока : 137 Мбайт (9%)
Выравнивание : Разделение по промежуткам
Продолжительность промежутка : 33 мс. (1,00 видеокадр)
Время предзагрузки промежутка : 500 мс.

Скриншоты

[teatrix.ru].t20001.torrent 
Торрент: Зарегистрирован [ 2016-03-19 00:42 ] · 3CB2BCA01565F86C2F89EA717A1887B5048B10E4

Скачать .torrent

Скачать

15 KB

Статус: проверено
Скачан: 2 раз
Размер: 1.45 GB
terms.php



Быстрый ответ

Имя:

      
Для отправки сообщений необходимо включить JavaScript
Показать сообщения:    

Текущее время: 24-Янв 12:15

Часовой пояс: UTC + 3


Вы можете начинать темы
Вы можете отвечать на сообщения
Вы не можете редактировать свои сообщения
Вы не можете удалять свои сообщения
Вы не можете голосовать в опросах
Вы не можете прикреплять файлы к сообщениям
Вы можете скачивать файлы