Мушкетеры (Андрей Рыклин) [2013 г., приключения, экранизация, SATRip] Российский академический молодежный театр


 

[Цитировать]

Мушкетеры Название театра: Российский академический молодежный театр.
Жанр: приключения, экранизация.
Год выпуска: 2013.
Продолжительность: 02:16:59.
Режиссеры: Андрей Рыклин.
Действующие лица и исполнители:
Д'Артаньян, гасконский дворянин - Дмитрий Бурукин
Атос, граф де ла Фер, королевский мушкетер - Дмитрий Кривощапов
Портос, королевский мушкетер - Владислав Погиба
Арамис, королевский мушкетер - Алексей Бобров
Анна Австрийская, королева Франции - Ирина Таранник
Констанция Бонасье, кастелянша королевы - Анна Дворжецкая
Миледи Винтер, агент кардинала - Мария Турова
Людовик XIII, король Франции - Александр Пахомов
Де Тревиль, капитан королевских мушкетеров - Александр Гришин
Ришелье, кардинал Франции - Александр Девятьяров
Рошфор, французский дворянин, правая рука кардинала - Иван Забелин
Герцог Бекингем, первый министр короля Англии - Денис Баландин
Лорд Винтер, английский дворянин - Тарас Епифанцев.
А также: Евгения Белобородова, Анастасия Прокофьева, Анна Тараторкина, Николай Ллямчук, Алексей Мишаков, Изнаур Орцуев, Виктор Панченко, Сергей Печенкин, Антон Савватимов, Игорь Скрипко, Виталий Тимашков, Прохор Чеховский.
Описание:
Легендарная история четырех друзей, рассказанная Александром Дюма - о любви и дружбе, верности и предательстве, рыцарстве и чести, долге и умении управлять собой.
Мастер сценического движения и боя Андрей Рыклин создает современный спектакль, сохраняя авантюрную атмосферу романа.

Дополнительная информация:
Страна: Россия .
Выпущено: © Киностудия "Юность".
Автор: Александр Дюма.
Авторы пьесы: Андрей Рыклин и Мария Шутова.
Автор инсценировки и режиссер постановщик спектакля: Владимир Богатырев.
Художник: народный художник России Станислав Бенедиктов.
Композитор: Натали Плэже.
Художник по костюмам: Валентина Комолова.
Художник по свету: заслуженный работник культуры России Андрей Изотов.
Пластика: Лилия Сафина, Дмитрий Бурукин.
Постановщики сценического боя: Андрей Рыклин и Александр Голубков.
Художественный руководитель театра: народный артист России Алексей Бородин.
Премьера состоялась 25 апреля 2013 года.
Режиссер телеверсии: Сергей Сидоренко.
Оператор-постановщик: Владимир Кузаков.

О спектакле.
Релиз

Качество: SATRip
Формат: AVI
Видео:..720x400 (1.80:1), 25 fps, XviD MPEG-4 ~1377 kbps avg, 0.19 bit/pixel
Аудио:..44.100 kHz, MPEG Layer 3, 2 ch, ~128.00 kbps avg

Отчет Media Info

Общее
Полное имя : Mushketery_RAMT.2013.XviD.SATRip.fenixclub.avi
Формат : AVI
Формат/Информация : Audio Video Interleave
Размер файла : 1,45 Гбайт
Продолжительность : 2 ч. 16 м.
Общий поток : 1516 Кбит/сек
Программа кодирования : VirtualDubModRus 1.5.10.2 (build 2542/release)
Библиотека кодирования : VirtualDub build 32842/release
Видео
Идентификатор : 0
Формат : MPEG-4 Visual
Профиль формата : Advanced Simple@L5
Параметр BVOP формата : 2
Параметр QPel формата : Нет
Параметр GMC формата : Без точки перехода
Параметр матрицы формата : Default (H.263)
Режим смешивания : Сжатый битовый поток
Идентификатор кодека : XVID
Идентификатор кодека/Подсказка : XviD
Продолжительность : 2 ч. 16 м.
Битрейт : 1378 Кбит/сек
Ширина : 720 пикселей
Высота : 400 пикселей
Соотношение сторон : 16:9
Частота кадров : 25,000 кадров/сек
Цветовое пространство : YUV
Субдискретизация насыщенности : 4:2:0
Битовая глубина : 8 бит
Тип развёртки : Прогрессивная
Метод сжатия : С потерями
Бит/(Пиксели*Кадры) : 0.191
Размер потока : 1,32 Гбайт (91%)
Библиотека кодирования : XviD 1.2.1 (UTC 2008-12-04)
Аудио
Идентификатор : 1
Формат : MPEG Audio
Версия формата : Version 1
Профиль формата : Layer 3
Режим : Joint stereo
Идентификатор кодека : 55
Идентификатор кодека/Подсказка : MP3
Продолжительность : 2 ч. 16 м.
Вид битрейта : Постоянный
Битрейт : 128 Кбит/сек
Каналы : 2 канала
Частота : 44,1 КГц
Метод сжатия : С потерями
Размер потока : 125 Мбайт (8%)
Выравнивание : Разделение по промежуткам
Продолжительность промежутка : 40 мс. (1,00 видеокадр)
Время предзагрузки промежутка : 500 мс.
Библиотека кодирования : LAME3.98

Скриншот с название постановки

Скриншоты


Альтернативный хост





Показать сообщения:    

Текущее время: 06-Дек 20:54

Часовой пояс: UTC + 3


Вы не можете начинать темы
Вы не можете отвечать на сообщения
Вы не можете редактировать свои сообщения
Вы не можете удалять свои сообщения
Вы не можете голосовать в опросах
Вы не можете прикреплять файлы к сообщениям
Вы не можете скачивать файлы