Кристоф Глюк - Орфей и Эвридика (фестиваль Кастель де Пералада; Карлуш Падрисса, Николич Гордан) / Christophe Willibald Gluck - Orfeo ed Euridice (Castell de Peralada Festival; Carlus Padrissa, Gordan Nikolic) [2011, Opera, Blu-ray 1080i]


 

[Цитировать]

Кристоф Глюк - Орфей и Эвридика / Christophe Willibald Gluck - Orfeo ed Euridice
Год выпуска: 2011
Лейбл: C MAJOR, Unitel Classica
Страна-производитель: Великобритания
Жанр: Opera
Продолжительность: 01:50:18
Язык: Итальянский
Субтитры: Английские, французские, немецкие, итальянские, испанские, китайские, корейские
Режиссер: Carlus Padrissa (Карлуш Падрисса)
Дирижер: Gordan Nikolic (Николич Гордан)
Исполнители:
Anita Rachvelishvili (Анита Рачвелишвили) - Orfeo,
Maite Alberola (Майте Альберола) - Euridice,
Auxiliadora Toledano (Ауксилиадора Толедано) - Amore,
Aline Vincent (Алин Винсент) - Dancer
Palau de la Musica Catalana Chamber Choir (хор Дворца Каталонской музыки), Orquesta bandArt
Описание: «Орфей и Эвридика» (итал. Orfeo ed Euridice) — опера К. Ф. Глюка, созданная в 1762 году на сюжет греческого мифа об Орфее. Опера положила начало «оперной реформе» Глюка, направленной на достижение органичного слияния музыки и драмы и подчинение музыкального развития драматическому[1][2]. Первоначальная версия либретто написана Раньери де Кальцабиджи на итальянском языке. Премьера оперы состоялась 5 октября 1762 года в «Бургтеатре» в Вене. Партию Орфея исполнил кастрат-альт Гаэтано Гуаданьи.
В дальнейшем опера была пересмотрена автором, и в 1774 году подготовлена новая редакция с либретто на французском языке, автором которого стал П.Л. Молина. Эта версия оперы впервые представлена публике 2 августа 1774 года в Париже, в Королевской академии музыки. В редакции 1774 года партия Орфея написана для другого голоса: не альта (как в первоначальной), а тенора.
В 1859 году Г. Берлиозом подготовлена собственная редакция оперы, где партия Орфея предназначена для женского голоса (меццо-сопрано или контральто).

Оригинальное описание

To celebrate the 25th anniversary of the small but ambitious Spanish Festival Internacional de Música Castell de Peralada, the Catalan theater collective La Fura dels Baus and its director Carlus Padrissa have staged Gluck's opera Orfeo ed Euridice with three splendid female voices and in a production that wonderfully reflects the Fura's never-failing imaginativeness.
The most striking aspect of the production is the direct involvement of the musical ensemble in the action.
The group, bandArt, is an instrumental ensemble that performs standing, moving about or even dancing, on the stage and without a conductor.
Stage director Padrissa goes so far as to exclaim: "Like Gluck, who with this opera opened the doors to the reformation of the opera 250 years ago, I feel that we are opening up a new path that will let the orchestra rise from the pit to incorporate itself into the action on stage" (Padrissa in El País).
In addition to the visible instrumentalists, Padrissa also makes abundant stage use of the chorus members who depict souls, demons and other creatures in his production.
His staging is fundamentally inspired by sacred medieval iconography and the depiction of mythical animals found in Romanesque and Gothic churches. Combined with visually stunning effects, expert lighting and large video projections, the production grabs the viewer from the start and doesn't let go. What makes or breaks Gluck's opera is the role of Orfeo. Since Gluck's original Italian version is performed here, the role of Orfeo is performed by a mezzo, Anita Rachvelishvili of Georgia, a singer who unfailingly commands the stage with her infinite range of expressions both vocal and dramatic. Maite Alberola's Euridice and Auxiliadora Toledano's Amor blend their voices perfectly with that of Rachvelishvili.
Recorded live at the Castell de Peralada Festival, 2011
Бонусы: анонсы дисков.
Об опере
Качество видео: Blu-ray
Формат/Контейнер: BDMV
Видео кодек: MPEG4
Аудио кодек: LPCM, DTS
Видео поток: MPEG-4 Video, 1920x1080, 30926 kbps, 29.970 fps
Аудио поток: LPCM, 2304 kbps, 48 kHz, 2 ch. DTS-HD MA, 4056 kbps, 48 kHz, 6 ch

BD-Info

DISC INFO:
Disc Title: Глюк - Орфей и Эвридика (Castell de Peralada Festival) (2011) (Blu-ray 1080i, AVC, DTS-HD 5.1)
Disc Size: 34 667 195 082 bytes
Protection: AACS
BD-Java: No
BDInfo: 0.5.8
PLAYLIST REPORT:
Name: 00001.MPLS
Length: 1:50:18.945 (h:m:s.ms)
Size: 32 549 683 200 bytes
Total Bitrate: 39,34 Mbps
VIDEO:
Codec Bitrate Description
----- ------- -----------
MPEG-4 AVC Video 30926 kbps 1080i / 29,970 fps / 16:9 / High Profile 4.1
AUDIO:
Codec Language Bitrate Description
----- -------- ------- -----------
LPCM Audio Italian 2304 kbps 2.0 / 48 kHz / 2304 kbps / 24-bit
DTS-HD Master Audio Italian 4056 kbps 5.1 / 48 kHz / 4056 kbps / 24-bit (DTS Core: 5.1 / 48 kHz / 1509 kbps / 24-bit)
SUBTITLES:
Codec Language Bitrate Description
----- -------- ------- -----------
Presentation Graphics Italian 8,203 kbps
Presentation Graphics English 8,988 kbps
Presentation Graphics German 11,033 kbps
Presentation Graphics French 9,574 kbps
Presentation Graphics Spanish 9,202 kbps
Presentation Graphics Chinese 8,014 kbps
Presentation Graphics Korean 8,376 kbps
FILES:
Name Time In Length Size Total Bitrate
---- ------- ------ ---- -------------
00001.M2TS 0:00:00.000 1:50:00.860 32 540 037 120 39 437
00000.M2TS 1:50:00.860 0:00:09.042 4 823 040 4 267
00005.M2TS 1:50:09.903 0:00:09.042 4 823 040 4 267
Семпл

Скриншоты


Скриншоты доп. материалов




Показать сообщения:    

Текущее время: 08-Дек 10:50

Часовой пояс: UTC + 3


Вы не можете начинать темы
Вы не можете отвечать на сообщения
Вы не можете редактировать свои сообщения
Вы не можете удалять свои сообщения
Вы не можете голосовать в опросах
Вы не можете прикреплять файлы к сообщениям
Вы не можете скачивать файлы