АББА. Даба Ду / ABBA. DABBA DOOO (Леонард Еек / Leonard Eek) [1977, Документальный, музыка, биография, IPTVRip]


Статистика раздачи [Обновить пиров]
Размер:  901 MB   |    Зарегистрирован:  8 месяцев 16 дней   |    Скачан:  0 раз

Полного источника не было: Никогда

Личеров:  9  [  0 KB/s  ]   Подробная статистика пиров
 
   
 
 
 

[Цитировать]

АББА. Даба Ду / ABBA. DABBA DOOO
Дата/Год выпуска: 1977
Страна: Швеция
Жанр: Документальный, музыка, биография
Продолжительность: 00:56:29
Перевод: Профессиональный (двухголосый закадровый)
Русские субтитры: нет
Оригинальная аудиодорожка: нет
Режиссер: Леонард Еек / Leonard Eek
Телеканал: Культура
Описание: Музыкально-документальный фильм об истории создания легендарной и супер-популярной поп-группы "АББА". Интервью с музыкантами, фрагменты композиций, принесших известность группы, исторические справки о каждом из участников - все это послужило основой картины.
Сэмпл: http://multi-up.com/1024658
Подобные раздачи:http://teatrix.ru/viewtopic.php?t=4906334
качество: IPTVRip
формат: AVI
Видео: 720x528 (1.36:1), 23.976 fps, XviD build 66 ~2029 kbps avg, 0.22 bit/pixel
Аудио: 48 kHz, AC3 Dolby Digital, 2/0 (L,R) ch, ~192 kbps

MediaInfo

General
Complete name : E:\Pshichko66\Na zapis'\Документальные фильмы\ABBA. Daba Du.avi
Format : AVI
Format/Info : Audio Video Interleave
File size : 901 MiB
Duration : 56mn 29s
Overall bit rate : 2 231 Kbps
Writing application : VirtualDubMod 1.5.10.2 (build 2540/release)
Writing library : VirtualDubMod build 2540/release
Video
ID : 0
Format : MPEG-4 Visual
Format profile : Advanced Simple@L5
Format settings, BVOP : 2
Format settings, QPel : No
Format settings, GMC : No warppoints
Format settings, Matrix : Custom
Codec ID : XVID
Codec ID/Hint : XviD
Duration : 56mn 29s
Bit rate : 2 029 Kbps
Width : 720 pixels
Height : 528 pixels
Display aspect ratio : 4:3
Frame rate : 23.976 fps
Color space : YUV
Chroma subsampling : 4:2:0
Bit depth : 8 bits
Scan type : Progressive
Compression mode : Lossy
Bits/(Pixel*Frame) : 0.223
Stream size : 820 MiB (91%)
Writing library : XviD 66
Audio
ID : 1
Format : AC-3
Format/Info : Audio Coding 3
Mode extension : CM (complete main)
Format settings, Endianness : Big
Codec ID : 2000
Duration : 56mn 29s
Bit rate mode : Constant
Bit rate : 192 Kbps
Channel count : 2 channels
Channel positions : Front: L R
Sampling rate : 48.0 KHz
Bit depth : 16 bits
Compression mode : Lossy
Stream size : 77.6 MiB (9%)
Alignment : Split accross interleaves
Interleave, duration : 42 ms (1.00 video frame)
Interleave, preload duration : 500 ms

Скриншоты

[teatrix.ru].t20009.torrent 
Торрент: Зарегистрирован [ 2016-03-19 00:44 ] · 33865A0301481A797B0785AD0DC01C0BEF48CA7D

Скачать .torrent

Скачать

18 KB

Статус: проверено
Скачан: 0 раз
Размер: 901 MB
terms.php



Быстрый ответ

Имя:

      
Для отправки сообщений необходимо включить JavaScript
Показать сообщения:    

Текущее время: 04-Дек 02:54

Часовой пояс: UTC + 3


Вы можете начинать темы
Вы можете отвечать на сообщения
Вы не можете редактировать свои сообщения
Вы не можете удалять свои сообщения
Вы не можете голосовать в опросах
Вы не можете прикреплять файлы к сообщениям
Вы можете скачивать файлы