(Classical) [LP] [24/48] Joseph Haydn - Symponies № 52,53 (Academy Of ST. Martin-In-The-Fields - Conductor Neville Marriner) - 1983, FLAC (tracks+.cue)


Статистика раздачи [Обновить пиров]
Размер:  469 MB   |    Зарегистрирован:  8 месяцев 22 дня   |    Скачан:  0 раз

Полного источника не было: Никогда

Личеров:  14  [  0 KB/s  ]   Подробная статистика пиров
 
   
 
 
 

[Цитировать]

Joseph Haydn - Symponies № 52,53 (Academy Of ST. Martin-In-The-Fields - Conductor Neville Marriner)
Жанр: Classical
Носитель: LP
Год выпуска: 1983
Лейбл: Melodya (VSG)
Страна-производитель: USSR
Аудио кодек: FLAC
Тип рипа: tracks+.cue
Формат записи: 32/192
Формат раздачи: 24/48
Продолжительность: 46.29 min
Треклист:
Side one:
Sympony № 52
01. Allegro assai
02. Andante
03. Menuetto
04. Largo maestoso
Side two:
Sympony № 53
05. Vivace
06. Andante
07. Menuet
08. Allegro con spirito, Hob. la № 7
Источник оцифровки: автором раздачи
Код класса состояния винила: NM
Устройство воспроизведения: Электроника ЭП 017С
Головка звукоснимателя: Audio-Technica AT95
Предварительный усилитель: Бриг-001
АЦП: VIA HD audio device
Программа-оцифровщик: Izotope RX 4 Advanced
Обработка: Manual

Спектр+АЧХ+Уровень записи

DR=13

foobar2000 1.1.10 / Dynamic Range Meter 1.1.1
log date: 2015-01-05 22:31:26
--------------------------------------------------------------------------------
Analyzed: Academy Of ST. Martin-In-The-Fields / Symponies № 52,53
--------------------------------------------------------------------------------
DR Peak RMS Duration Track
--------------------------------------------------------------------------------
DR11 -3.88 dB -19.61 dB 9:16 ?-Allegro assai
DR13 -8.00 dB -26.94 dB 6:20 ?-Andante
DR13 -5.21 dB -25.16 dB 3:24 ?-Menuetto
DR11 -4.73 dB -21.29 dB 5:16 ?-Largo maestoso
DR13 -0.83 dB -19.33 dB 7:14 ?-Vivace
DR14 -11.23 dB -30.52 dB 6:35 ?-Andante
DR12 -7.91 dB -27.35 dB 3:53 ?-Menuet
DR13 -7.03 dB -25.93 dB 4:31 ?-Allegro con spirito, Hob. la № 7
--------------------------------------------------------------------------------
Number of tracks: 8
Official DR value: DR13
Samplerate: 48000 Hz
Channels: 2
Bits per sample: 24
Bitrate: 1384 kbps
Codec: FLAC
================================================================================

Back & Disc



из за моего ошибки пришлось раздачу перезалит - прошли искажения на второй стороне (причина неправильно выставлен вес головки).
приношу извинения за неудобства
[teatrix.ru].t20013.torrent 
Торрент: Зарегистрирован [ 2016-03-19 00:44 ] · 8E53B04ECD707044D739E139011DF9DEC8B97414

Скачать .torrent

Скачать

20 KB

Статус: проверено
Скачан: 0 раз
Размер: 469 MB
terms.php



Быстрый ответ

Имя:

      
Для отправки сообщений необходимо включить JavaScript
Показать сообщения:    

Текущее время: 10-Дек 08:05

Часовой пояс: UTC + 3


Вы можете начинать темы
Вы можете отвечать на сообщения
Вы не можете редактировать свои сообщения
Вы не можете удалять свои сообщения
Вы не можете голосовать в опросах
Вы не можете прикреплять файлы к сообщениям
Вы можете скачивать файлы