Три жизни Эммануила Виторгана (Ирина Голубева) [2014, документальный, биография, SATRip]


Статистика раздачи [Обновить пиров]
Размер:  716 MB   |    Зарегистрирован:  8 месяцев 22 дня   |    Скачан:  0 раз

Полного источника не было: Никогда

Личеров:  18  [  0 KB/s  ]   Подробная статистика пиров
 
   
 
 
 

[Цитировать]

Три жизни Эммануила Виторгана- -Год выпуска: 2014
Страна: Россия
Жанр: документальный, биография
Продолжительность: 00:49:59
Перевод: Не требуется
Русские субтитры: нет-Режиссер: Ирина Голубева-Описание:
Родись Эммануил Виторган не в советском Баку, а где-нибудь в штатах он - с такими природными данными, - вполне мог стать звездой американского Бродвея!-Качество: SATRip
Формат: AVI
Видео кодек: XviD
Аудио кодек: AC3-Релиз оформлен группой: -Видео: 704x448 (1.57:1), 25 fps, XviD build 50 ~1799 kbps avg, 0.23 bit/pixel
Аудио: 48 kHz, AC3 Dolby Digital, 2/0 (L,R) ch, ~192.00 kbps avg
-

MediaInfo

General
Complete name : F:\000\Три жизни Эмануила Виторгана\Три жизни Эмануила Виторгана.avi
Format : AVI
Format/Info : Audio Video Interleave
File size : 716 MiB
Duration : 49mn 59s
Overall bit rate : 2 002 Kbps
Writing application : VirtualDubMod 1.5.10.3 | www.virtualdub-fr.org || (build 2550/release)
Writing library : VirtualDubMod build 2550/release
Video
ID : 0
Format : MPEG-4 Visual
Format profile : Advanced Simple@L5
Format settings, BVOP : 2
Format settings, QPel : No
Format settings, GMC : No warppoints
Format settings, Matrix : Default (H.263)
Codec ID : XVID
Codec ID/Hint : XviD
Duration : 49mn 59s
Bit rate : 1 800 Kbps
Width : 704 pixels
Height : 448 pixels
Display aspect ratio : 1.571
Frame rate : 25.000 fps
Color space : YUV
Chroma subsampling : 4:2:0
Bit depth : 8 bits
Scan type : Progressive
Compression mode : Lossy
Bits/(Pixel*Frame) : 0.228
Stream size : 644 MiB (90%)
Writing library : XviD 1.2.1 (UTC 2008-12-04)
Audio
ID : 1
Format : AC-3
Format/Info : Audio Coding 3
Mode extension : CM (complete main)
Format settings, Endianness : Big
Codec ID : 2000
Duration : 49mn 59s
Bit rate mode : Constant
Bit rate : 192 Kbps
Channel(s) : 2 channels
Channel positions : Front: L R
Sampling rate : 48.0 KHz
Bit depth : 16 bits
Compression mode : Lossy
Stream size : 68.6 MiB (10%)
Alignment : Split accross interleaves
Interleave, duration : 40 ms (1.00 video frame)
Interleave, preload duration : 500 ms

Скриншоты фильма

-Раздаю до первых 5-ти скачавших, на раздачи не возвращаюсь...-
[teatrix.ru].t20016.torrent 
Торрент: Зарегистрирован [ 2016-03-19 00:42 ] · ABD1C8FC7FFF064EAE45D56E51B2D5C74D1E6CE8

Скачать .torrent

Скачать

14 KB

Статус: проверено
Скачан: 0 раз
Размер: 716 MB
terms.php



Быстрый ответ

Имя:

      
Для отправки сообщений необходимо включить JavaScript
Показать сообщения:    

Текущее время: 10-Дек 02:11

Часовой пояс: UTC + 3


Вы можете начинать темы
Вы можете отвечать на сообщения
Вы не можете редактировать свои сообщения
Вы не можете удалять свои сообщения
Вы не можете голосовать в опросах
Вы не можете прикреплять файлы к сообщениям
Вы можете скачивать файлы