Мы из джаза. Проснуться знаменитым (Александр Казакевич) [2014, документальный, биография, культура, история, кинематограф, искусство, SATRip]


Статистика раздачи [Обновить пиров]
Размер:  419 MB   |    Зарегистрирован:  8 месяцев 21 день   |    Скачан:  0 раз

Полного источника не было: Никогда

Личеров:  12  [  0 KB/s  ]   Подробная статистика пиров
 
   
 
 
 

[Цитировать]

Мы из джаза. Проснуться знаменитым- -Год выпуска: 2014
Страна: Россия
Жанр: документальный, биография, культура, история, кинематограф, искусство
Продолжительность: 00:38:59
Перевод: Не требуется
Русские субтитры: нет-Режиссер: Александр Казакевич-Описание:
Артисты, которые снялись в фильме "Мы из джаза", на следующее утро после премьеры проснулись знаменитыми.
Откуда зрителям было знать, что почти всем, кто пришел работать на эту картину, был хорошо знаком тот момент творческого отчаяния,
когда кажется, удача даже не смотрит в твою сторону...-Качество: SATRip
Формат: AVI
Видео кодек: XviD
Аудио кодек: MPEG Layer 3-Релиз оформлен группой: -Видео: 704x400 (1.76:1), 25 fps, XviD build 50 ~1366 kbps avg, 0.19 bit/pixel
Аудио: 48 kHz, MPEG Layer 3, 2 ch, ~128.00 kbps avg
-

MediaInfo

General
Complete name : F:\000\Мы из джаза. Проснуться знаменитым\Мы из джаза. Проснуться знаменитым.avi
Format : AVI
Format/Info : Audio Video Interleave
File size : 419 MiB
Duration : 38mn 59s
Overall bit rate : 1 504 Kbps
Writing application : VirtualDubMod 1.5.10.2 (build 2540/release)
Writing library : VirtualDubMod build 2540/release
Video
ID : 0
Format : MPEG-4 Visual
Format profile : Advanced Simple@L5
Format settings, BVOP : 1
Format settings, QPel : No
Format settings, GMC : No warppoints
Format settings, Matrix : Default (H.263)
Codec ID : XVID
Codec ID/Hint : XviD
Duration : 38mn 59s
Bit rate : 1 366 Kbps
Width : 704 pixels
Height : 400 pixels
Display aspect ratio : 16:9
Frame rate : 25.000 fps
Color space : YUV
Chroma subsampling : 4:2:0
Bit depth : 8 bits
Scan type : Progressive
Compression mode : Lossy
Bits/(Pixel*Frame) : 0.194
Stream size : 381 MiB (91%)
Writing library : XviD 1.2.1 (UTC 2008-12-04)
Audio
ID : 1
Format : MPEG Audio
Format version : Version 1
Format profile : Layer 3
Codec ID : 55
Codec ID/Hint : MP3
Duration : 38mn 59s
Bit rate mode : Constant
Bit rate : 128 Kbps
Channel(s) : 2 channels
Sampling rate : 48.0 KHz
Compression mode : Lossy
Stream size : 35.7 MiB (9%)
Alignment : Aligned on interleaves
Interleave, duration : 40 ms (1.00 video frame)
Interleave, preload duration : 504 ms
Writing library : LAME3.98r
Encoding settings : -m s -V 4 -q 2 -lowpass 17 -b 128

Скриншоты фильма

-Раздаю до первых 5-ти скачавших, на раздачи не возвращаюсь...-
[teatrix.ru].t20017.torrent 
Торрент: Зарегистрирован [ 2016-03-19 00:42 ] · 40CCFAFC847233E77B094F45D390DC92F955890D

Скачать .torrent

Скачать

17 KB

Статус: проверено
Скачан: 0 раз
Размер: 419 MB
terms.php



Показать сообщения:    

Текущее время: 09-Дек 12:43

Часовой пояс: UTC + 3


Вы не можете начинать темы
Вы не можете отвечать на сообщения
Вы не можете редактировать свои сообщения
Вы не можете удалять свои сообщения
Вы не можете голосовать в опросах
Вы не можете прикреплять файлы к сообщениям
Вы можете скачивать файлы